  0
SECTION
  2
HEADER
  9
$ACADVER
  1
AC1015
  9
$ACADMAINTVER
 70
     6
  9
$DWGCODEPAGE
  3
ANSI_1252
  9
$INSBASE
 10
0.0
 20
0.0
 30
0.0
  9
$EXTMIN
 10
0.0
 20
0.0
 30
0.0
  9
$EXTMAX
 10
138.542920150808
 20
148.5000000000001
 30
0.0
  9
$LIMMIN
 10
0.0
 20
0.0
  9
$LIMMAX
 10
12.0
 20
9.0
  9
$ORTHOMODE
 70
     0
  9
$REGENMODE
 70
     1
  9
$FILLMODE
 70
     1
  9
$QTEXTMODE
 70
     0
  9
$MIRRTEXT
 70
     1
  9
$LTSCALE
 40
1.0
  9
$ATTMODE
 70
     1
  9
$TEXTSIZE
 40
0.2
  9
$TRACEWID
 40
0.05
  9
$TEXTSTYLE
  7
Standard
  9
$CLAYER
  8
0
  9
$CELTYPE
  6
ByLayer
  9
$CECOLOR
 62
   256
  9
$CELTSCALE
 40
1.0
  9
$DISPSILH
 70
     0
  9
$DIMSCALE
 40
1.0
  9
$DIMASZ
 40
0.18
  9
$DIMEXO
 40
0.0625
  9
$DIMDLI
 40
0.38
  9
$DIMRND
 40
0.0
  9
$DIMDLE
 40
0.0
  9
$DIMEXE
 40
0.18
  9
$DIMTP
 40
0.0
  9
$DIMTM
 40
0.0
  9
$DIMTXT
 40
0.18
  9
$DIMCEN
 40
0.09
  9
$DIMTSZ
 40
0.0
  9
$DIMTOL
 70
     0
  9
$DIMLIM
 70
     0
  9
$DIMTIH
 70
     1
  9
$DIMTOH
 70
     1
  9
$DIMSE1
 70
     0
  9
$DIMSE2
 70
     0
  9
$DIMTAD
 70
     0
  9
$DIMZIN
 70
     0
  9
$DIMBLK
  1

  9
$DIMASO
 70
     1
  9
$DIMSHO
 70
     1
  9
$DIMPOST
  1

  9
$DIMAPOST
  1

  9
$DIMALT
 70
     0
  9
$DIMALTD
 70
     2
  9
$DIMALTF
 40
25.4
  9
$DIMLFAC
 40
1.0
  9
$DIMTOFL
 70
     0
  9
$DIMTVP
 40
0.0
  9
$DIMTIX
 70
     0
  9
$DIMSOXD
 70
     0
  9
$DIMSAH
 70
     0
  9
$DIMBLK1
  1

  9
$DIMBLK2
  1

  9
$DIMSTYLE
  2
Standard
  9
$DIMCLRD
 70
     0
  9
$DIMCLRE
 70
     0
  9
$DIMCLRT
 70
     0
  9
$DIMTFAC
 40
1.0
  9
$DIMGAP
 40
0.09
  9
$DIMJUST
 70
     0
  9
$DIMSD1
 70
     0
  9
$DIMSD2
 70
     0
  9
$DIMTOLJ
 70
     1
  9
$DIMTZIN
 70
     0
  9
$DIMALTZ
 70
     0
  9
$DIMALTTZ
 70
     0
  9
$DIMUPT
 70
     0
  9
$DIMDEC
 70
     4
  9
$DIMTDEC
 70
     4
  9
$DIMALTU
 70
     2
  9
$DIMALTTD
 70
     2
  9
$DIMTXSTY
  7
Standard
  9
$DIMAUNIT
 70
     0
  9
$DIMADEC
 70
     0
  9
$DIMALTRND
 40
0.0
  9
$DIMAZIN
 70
     0
  9
$DIMDSEP
 70
    46
  9
$DIMATFIT
 70
     3
  9
$DIMFRAC
 70
     0
  9
$DIMLDRBLK
  1

  9
$DIMLUNIT
 70
     2
  9
$DIMLWD
 70
    -2
  9
$DIMLWE
 70
    -2
  9
$DIMTMOVE
 70
     0
  9
$LUNITS
 70
     2
  9
$LUPREC
 70
     4
  9
$SKETCHINC
 40
0.1
  9
$FILLETRAD
 40
0.5
  9
$AUNITS
 70
     0
  9
$AUPREC
 70
     0
  9
$MENU
  1
.
  9
$ELEVATION
 40
0.0
  9
$PELEVATION
 40
0.0
  9
$THICKNESS
 40
0.0
  9
$LIMCHECK
 70
     0
  9
$CHAMFERA
 40
0.5
  9
$CHAMFERB
 40
0.5
  9
$CHAMFERC
 40
1.0
  9
$CHAMFERD
 40
0.0
  9
$SKPOLY
 70
     0
  9
$TDCREATE
 40
2456958.391998623
  9
$TDUCREATE
 40
2456958.350331956
  9
$TDUPDATE
 40
2456958.391998982
  9
$TDUUPDATE
 40
2456958.350332315
  9
$TDINDWG
 40
0.0000000116
  9
$TDUSRTIMER
 40
0.0000000116
  9
$USRTIMER
 70
     1
  9
$ANGBASE
 50
0.0
  9
$ANGDIR
 70
     0
  9
$PDMODE
 70
     0
  9
$PDSIZE
 40
0.0
  9
$PLINEWID
 40
0.0
  9
$SPLFRAME
 70
     0
  9
$SPLINETYPE
 70
     6
  9
$SPLINESEGS
 70
     8
  9
$HANDSEED
  5
4C5
  9
$SURFTAB1
 70
     6
  9
$SURFTAB2
 70
     6
  9
$SURFTYPE
 70
     6
  9
$SURFU
 70
     6
  9
$SURFV
 70
     6
  9
$UCSBASE
  2

  9
$UCSNAME
  2

  9
$UCSORG
 10
0.0
 20
0.0
 30
0.0
  9
$UCSXDIR
 10
1.0
 20
0.0
 30
0.0
  9
$UCSYDIR
 10
0.0
 20
1.0
 30
0.0
  9
$UCSORTHOREF
  2

  9
$UCSORTHOVIEW
 70
     0
  9
$UCSORGTOP
 10
0.0
 20
0.0
 30
0.0
  9
$UCSORGBOTTOM
 10
0.0
 20
0.0
 30
0.0
  9
$UCSORGLEFT
 10
0.0
 20
0.0
 30
0.0
  9
$UCSORGRIGHT
 10
0.0
 20
0.0
 30
0.0
  9
$UCSORGFRONT
 10
0.0
 20
0.0
 30
0.0
  9
$UCSORGBACK
 10
0.0
 20
0.0
 30
0.0
  9
$PUCSBASE
  2

  9
$PUCSNAME
  2

  9
$PUCSORG
 10
0.0
 20
0.0
 30
0.0
  9
$PUCSXDIR
 10
1.0
 20
0.0
 30
0.0
  9
$PUCSYDIR
 10
0.0
 20
1.0
 30
0.0
  9
$PUCSORTHOREF
  2

  9
$PUCSORTHOVIEW
 70
     0
  9
$PUCSORGTOP
 10
0.0
 20
0.0
 30
0.0
  9
$PUCSORGBOTTOM
 10
0.0
 20
0.0
 30
0.0
  9
$PUCSORGLEFT
 10
0.0
 20
0.0
 30
0.0
  9
$PUCSORGRIGHT
 10
0.0
 20
0.0
 30
0.0
  9
$PUCSORGFRONT
 10
0.0
 20
0.0
 30
0.0
  9
$PUCSORGBACK
 10
0.0
 20
0.0
 30
0.0
  9
$USERI1
 70
     0
  9
$USERI2
 70
     0
  9
$USERI3
 70
     0
  9
$USERI4
 70
     0
  9
$USERI5
 70
     0
  9
$USERR1
 40
18.1
  9
$USERR2
 40
0.0
  9
$USERR3
 40
0.0
  9
$USERR4
 40
0.0
  9
$USERR5
 40
0.0
  9
$WORLDVIEW
 70
     1
  9
$SHADEDGE
 70
     3
  9
$SHADEDIF
 70
    70
  9
$TILEMODE
 70
     1
  9
$MAXACTVP
 70
    64
  9
$PINSBASE
 10
0.0
 20
0.0
 30
0.0
  9
$PLIMCHECK
 70
     0
  9
$PEXTMIN
 10
1.00000000000000E+20
 20
1.00000000000000E+20
 30
1.00000000000000E+20
  9
$PEXTMAX
 10
-1.00000000000000E+20
 20
-1.00000000000000E+20
 30
-1.00000000000000E+20
  9
$PLIMMIN
 10
0.0
 20
0.0
  9
$PLIMMAX
 10
12.0
 20
9.0
  9
$UNITMODE
 70
     0
  9
$VISRETAIN
 70
     1
  9
$PLINEGEN
 70
     0
  9
$PSLTSCALE
 70
     1
  9
$TREEDEPTH
 70
  3020
  9
$CMLSTYLE
  2
Standard
  9
$CMLJUST
 70
     0
  9
$CMLSCALE
 40
1.0
  9
$PROXYGRAPHICS
 70
     1
  9
$MEASUREMENT
 70
     1
  9
$CELWEIGHT
370
    -1
  9
$ENDCAPS
280
     0
  9
$JOINSTYLE
280
     0
  9
$LWDISPLAY
290
     0
  9
$INSUNITS
 70
     4
  9
$HYPERLINKBASE
  1

  9
$STYLESHEET
  1

  9
$XEDIT
290
     1
  9
$CEPSNTYPE
380
     0
  9
$PSTYLEMODE
290
     1
  9
$FINGERPRINTGUID
  2
{C0793485-C870-4BAC-96AC-E54266C65161}
  9
$VERSIONGUID
  2
{FAEB1C32-E019-11D5-929B-00C0DF256EC4}
  9
$EXTNAMES
290
     1
  9
$PSVPSCALE
 40
0.0
  9
$OLESTARTUP
290
     0
  0
ENDSEC
  0
SECTION
  2
CLASSES
  0
CLASS
  1
ACDBDICTIONARYWDFLT
  2
AcDbDictionaryWithDefault
  3
ObjectDBX Classes
 90
        0
280
     0
281
     0
  0
CLASS
  1
VISUALSTYLE
  2
AcDbVisualStyle
  3
ObjectDBX Classes
 90
     4095
280
     0
281
     0
  0
CLASS
  1
MATERIAL
  2
AcDbMaterial
  3
ObjectDBX Classes
 90
     1153
280
     0
281
     0
  0
CLASS
  1
DICTIONARYVAR
  2
AcDbDictionaryVar
  3
ObjectDBX Classes
 90
        0
280
     0
281
     0
  0
CLASS
  1
ACDBPLACEHOLDER
  2
AcDbPlaceHolder
  3
ObjectDBX Classes
 90
        0
280
     0
281
     0
  0
CLASS
  1
LAYOUT
  2
AcDbLayout
  3
ObjectDBX Classes
 90
        0
280
     0
281
     0
  0
ENDSEC
  0
SECTION
  2
TABLES
  0
TABLE
  2
VPORT
  5
8
330
0
100
AcDbSymbolTable
 70
     1
  0
VPORT
  5
29
330
8
100
AcDbSymbolTableRecord
100
AcDbViewportTableRecord
  2
*Active
 70
     0
 10
0.0
 20
0.0
 11
1.0
 21
1.0
 12
69.271460075404
 22
74.25000000000006
 13
0.0
 23
0.0
 14
0.5
 24
0.5
 15
0.5
 25
0.5
 16
0.0
 26
0.0
 36
1.0
 17
0.0
 27
0.0
 37
0.0
 40
163.3500000000001
 41
1.60267857142857
 42
50.0
 43
0.0
 44
0.0
 50
0.0
 51
0.0
 71
     0
 72
   100
 73
     1
 74
     3
 75
     0
 76
     0
 77
     0
 78
     0
281
     0
 65
     1
110
0.0
120
0.0
130
0.0
111
1.0
121
0.0
131
0.0
112
0.0
122
1.0
132
0.0
 79
     0
146
0.0
  0
ENDTAB
  0
TABLE
  2
LTYPE
  5
5
330
0
100
AcDbSymbolTable
 70
     8
  0
LTYPE
  5
14
330
5
100
AcDbSymbolTableRecord
100
AcDbLinetypeTableRecord
  2
ByBlock
 70
     0
  3

 72
    65
 73
     0
 40
0.0
  0
LTYPE
  5
15
330
5
100
AcDbSymbolTableRecord
100
AcDbLinetypeTableRecord
  2
ByLayer
 70
     0
  3

 72
    65
 73
     0
 40
0.0
  0
LTYPE
  5
16
330
5
100
AcDbSymbolTableRecord
100
AcDbLinetypeTableRecord
  2
Continuous
 70
     0
  3
Solid line
 72
    65
 73
     0
 40
0.0
  0
LTYPE
  5
3F
330
5
100
AcDbSymbolTableRecord
100
AcDbLinetypeTableRecord
  2
DASHED
 70
     0
  3
Dashed
 72
    65
 73
     2
 40
15.0
 49
7.0
 74
     0
 49
-8.0
 74
     0
  0
LTYPE
  5
40
330
5
100
AcDbSymbolTableRecord
100
AcDbLinetypeTableRecord
  2
DOTTED
 70
     0
  3
Dotted
 72
    65
 73
     2
 40
1.0
 49
0.0
 74
     0
 49
-1.0
 74
     0
  0
LTYPE
  5
41
330
5
100
AcDbSymbolTableRecord
100
AcDbLinetypeTableRecord
  2
DOT_CENTER
 70
     0
  3
Dot_Center
 72
    65
 73
     4
 40
14.0
 49
12.0
 74
     0
 49
-1.0
 74
     0
 49
0.0
 74
     0
 49
-1.0
 74
     0
  0
LTYPE
  5
42
330
5
100
AcDbSymbolTableRecord
100
AcDbLinetypeTableRecord
  2
LONG_DASHED
 70
     0
  3
Long_Dashed
 72
    65
 73
     2
 40
15.0
 49
10.0
 74
     0
 49
-5.0
 74
     0
  0
LTYPE
  5
43
330
5
100
AcDbSymbolTableRecord
100
AcDbLinetypeTableRecord
  2
DASH_CENTER
 70
     0
  3
Dash_Center
 72
    65
 73
     4
 40
14.0
 49
11.0
 74
     0
 49
-1.0
 74
     0
 49
1.0
 74
     0
 49
-1.0
 74
     0
  0
LTYPE
  5
44
330
5
100
AcDbSymbolTableRecord
100
AcDbLinetypeTableRecord
  2
PHANTOM
 70
     0
  3
Phantom
 72
    65
 73
     6
 40
13.0
 49
10.0
 74
     0
 49
-1.0
 74
     0
 49
0.0
 74
     0
 49
-1.0
 74
     0
 49
0.0
 74
     0
 49
-1.0
 74
     0
  0
LTYPE
  5
45
330
5
100
AcDbSymbolTableRecord
100
AcDbLinetypeTableRecord
  2
CENTER_DASH_DASH
 70
     0
  3
Center_Dash_Dash
 72
    65
 73
     6
 40
14.0
 49
9.0
 74
     0
 49
-1.0
 74
     0
 49
1.0
 74
     0
 49
-1.0
 74
     0
 49
1.0
 74
     0
 49
-1.0
 74
     0
  0
ENDTAB
  0
TABLE
  2
LAYER
  5
2
330
0
100
AcDbSymbolTable
 70
     2
  0
LAYER
  5
10
330
2
100
AcDbSymbolTableRecord
100
AcDbLayerTableRecord
  2
0
 70
     0
 62
     7
  6
Continuous
370
    -3
390
F
  0
LAYER
  5
46
330
2
100
AcDbSymbolTableRecord
100
AcDbLayerTableRecord
  2
1
 70
     0
 62
     7
  6
Continuous
370
    -3
390
F
  0
ENDTAB
  0
TABLE
  2
STYLE
  5
3
330
0
100
AcDbSymbolTable
 70
     4
  0
STYLE
  5
11
330
3
100
AcDbSymbolTableRecord
100
AcDbTextStyleTableRecord
  2
Standard
 70
     0
 40
0.0
 41
1.0
 50
0.0
 71
     0
 42
0.2
  3
txt
  4

  0
STYLE
  5
464
330
3
100
AcDbSymbolTableRecord
100
AcDbTextStyleTableRecord
  2
CONVERTER_11
 70
     0
 40
0.0
 41
1.2
 50
0.0
 71
     0
 42
0.2
  3
ARIAL.TTF
  4

  0
STYLE
  5
469
330
3
100
AcDbSymbolTableRecord
100
AcDbTextStyleTableRecord
  2
CONVERTER_12
 70
     0
 40
0.0
 41
1.38
 50
0.0
 71
     0
 42
0.2
  3
ARIAL.TTF
  4

  0
STYLE
  5
46B
330
3
100
AcDbSymbolTableRecord
100
AcDbTextStyleTableRecord
  2
CONVERTER_13
 70
     0
 40
0.0
 41
0.95
 50
0.0
 71
     0
 42
0.2
  3
simplex.shx
  4

  0
ENDTAB
  0
TABLE
  2
VIEW
  5
6
330
0
100
AcDbSymbolTable
 70
     0
  0
ENDTAB
  0
TABLE
  2
UCS
  5
7
330
0
100
AcDbSymbolTable
 70
     0
  0
ENDTAB
  0
TABLE
  2
APPID
  5
9
330
0
100
AcDbSymbolTable
 70
     1
  0
APPID
  5
12
330
9
100
AcDbSymbolTableRecord
100
AcDbRegAppTableRecord
  2
ACAD
 70
     0
  0
ENDTAB
  0
TABLE
  2
DIMSTYLE
  5
A
330
0
100
AcDbSymbolTable
 70
     4
100
AcDbDimStyleTable
  0
DIMSTYLE
105
27
330
A
100
AcDbSymbolTableRecord
100
AcDbDimStyleTableRecord
  2
Standard
 70
     0
178
     0
340
11
  0
DIMSTYLE
105
47E
102
{ACAD_REACTORS
330
47F
102
}
330
A
100
AcDbSymbolTableRecord
100
AcDbDimStyleTableRecord
  2
ME10_DIM_10
 70
     0
 41
1.5
 42
0.25
 44
0.5
 73
     0
 74
     0
 77
     1
 78
     8
140
1.5
147
1.0
172
     1
173
     1
174
     1
175
     1
176
     7
177
     7
271
     2
178
     7
271
     2
340
46B
  0
DIMSTYLE
105
489
102
{ACAD_REACTORS
330
48A
102
}
330
A
100
AcDbSymbolTableRecord
100
AcDbDimStyleTableRecord
  2
ME10_DIM_11
 70
     0
 41
1.5
 42
0.25
 44
0.5
 73
     0
 74
     0
 77
     1
 78
     8
140
1.5
147
1.0
172
     1
173
     1
174
     1
175
     1
176
     7
177
     7
271
     2
178
     7
271
     2
340
46B
  0
DIMSTYLE
105
494
102
{ACAD_REACTORS
330
495
102
}
330
A
100
AcDbSymbolTableRecord
100
AcDbDimStyleTableRecord
  2
ME10_DIM_12
 70
     0
 41
1.5
 42
0.25
 44
0.5
 73
     0
 74
     0
 77
     1
 78
     8
140
1.5
147
1.0
172
     1
173
     1
174
     1
175
     1
176
     7
177
     7
271
     2
178
     7
271
     2
340
46B
  0
ENDTAB
  0
TABLE
  2
BLOCK_RECORD
  5
1
330
0
100
AcDbSymbolTable
 70
     5
  0
BLOCK_RECORD
  5
1F
330
1
100
AcDbSymbolTableRecord
100
AcDbBlockTableRecord
  2
*Model_Space
340
22
  0
BLOCK_RECORD
  5
1B
330
1
100
AcDbSymbolTableRecord
100
AcDbBlockTableRecord
  2
*Paper_Space
340
1E
  0
BLOCK_RECORD
  5
23
330
1
100
AcDbSymbolTableRecord
100
AcDbBlockTableRecord
  2
*Paper_Space0
340
26
  0
BLOCK_RECORD
  5
47
330
1
100
AcDbSymbolTableRecord
100
AcDbBlockTableRecord
  2
_dummy_frame
340
0
102
{BLKREFS
331
4A
102
}
  0
BLOCK_RECORD
  5
475
330
1
100
AcDbSymbolTableRecord
100
AcDbBlockTableRecord
  2
*D2
340
0
  0
BLOCK_RECORD
  5
480
330
1
100
AcDbSymbolTableRecord
100
AcDbBlockTableRecord
  2
*D3
340
0
  0
BLOCK_RECORD
  5
48B
330
1
100
AcDbSymbolTableRecord
100
AcDbBlockTableRecord
  2
*D4
340
0
  0
ENDTAB
  0
ENDSEC
  0
SECTION
  2
BLOCKS
  0
BLOCK
  5
20
330
1F
100
AcDbEntity
  8
0
100
AcDbBlockBegin
  2
*Model_Space
 70
     0
 10
0.0
 20
0.0
 30
0.0
  3
*Model_Space
  1

  0
ENDBLK
  5
21
330
1F
100
AcDbEntity
  8
0
100
AcDbBlockEnd
  0
BLOCK
  5
1C
330
1B
100
AcDbEntity
 67
     1
  8
0
100
AcDbBlockBegin
  2
*Paper_Space
 70
     0
 10
0.0
 20
0.0
 30
0.0
  3
*Paper_Space
  1

  0
ENDBLK
  5
1D
330
1B
100
AcDbEntity
 67
     1
  8
0
100
AcDbBlockEnd
  0
BLOCK
  5
24
330
23
100
AcDbEntity
  8
0
100
AcDbBlockBegin
  2
*Paper_Space0
 70
     0
 10
0.0
 20
0.0
 30
0.0
  3
*Paper_Space0
  1

  0
ENDBLK
  5
25
330
23
100
AcDbEntity
  8
0
100
AcDbBlockEnd
  0
BLOCK
  5
48
330
47
100
AcDbEntity
  8
0
100
AcDbBlockBegin
  2
_dummy_frame
 70
     0
 10
21.69306184666161
 20
25.3135215975532
 30
0.0
  3
_dummy_frame
  1

  0
POINT
  5
4B
330
47
100
AcDbEntity
  8
1
 62
     7
 60
     1
100
AcDbPoint
 10
21.69306184666161
 20
25.3135215975532
 30
0.0
  0
ENDBLK
  5
49
330
47
100
AcDbEntity
  8
0
100
AcDbBlockEnd
  0
BLOCK
  5
47C
330
475
100
AcDbEntity
  8
0
100
AcDbBlockBegin
  2
*D2
 70
     1
 10
0.0
 20
0.0
 30
0.0
  3
*D2
  1

  0
LINE
  5
476
330
475
100
AcDbEntity
  8
1
  6
Continuous
 62
     7
100
AcDbLine
 10
29.19306180127358
 20
102.8572050671218
 30
0.0
 11
50.19306180127359
 21
102.8572050671218
 31
0.0
  0
LINE
  5
477
330
475
100
AcDbEntity
  8
1
  6
Continuous
 62
     7
100
AcDbLine
 10
29.19306180127358
 20
82.91352197533111
 30
0.0
 11
29.19306180127358
 21
103.3572050671218
 31
0.0
  0
LINE
  5
478
330
475
100
AcDbEntity
  8
1
  6
Continuous
 62
     7
100
AcDbLine
 10
50.19306180127359
 20
82.9135219753311
 30
0.0
 11
50.19306180127359
 21
103.3572050671218
 31
0.0
  0
SOLID
  5
479
330
475
100
AcDbEntity
  8
1
 62
     7
100
AcDbTrace
 10
30.69306180127358
 20
103.0546838135029
 30
0.0
 11
30.69306180127358
 21
102.6597263207407
 31
0.0
 12
29.19306180127358
 22
102.8572050671218
 32
0.0
 13
29.19306180127358
 23
102.8572050671218
 33
0.0
  0
SOLID
  5
47A
330
475
100
AcDbEntity
  8
1
 62
     7
100
AcDbTrace
 10
48.69306180127359
 20
102.6597263207407
 30
0.0
 11
48.69306180127359
 21
103.0546838135029
 31
0.0
 12
50.19306180127359
 22
102.8572050671218
 32
0.0
 13
50.19306180127359
 23
102.8572050671218
 33
0.0
  0
MTEXT
  5
47B
330
475
100
AcDbEntity
  8
1
 62
     7
100
AcDbMText
 10
38.79306180127359
 20
103.8572050671218
 30
0.0
 40
1.5
 41
0.0
 71
     7
 72
     1
  1
21
  7
CONVERTER_13
 11
0.9999999999970619
 21
2.424068405545306E-6
 31
0.0
 73
     1
 44
0.60024009603842
  0
ENDBLK
  5
47D
330
475
100
AcDbEntity
  8
0
100
AcDbBlockEnd
  0
BLOCK
  5
487
330
480
100
AcDbEntity
  8
0
100
AcDbBlockBegin
  2
*D3
 70
     1
 10
0.0
 20
0.0
 30
0.0
  3
*D3
  1

  0
LINE
  5
481
330
480
100
AcDbEntity
  8
1
  6
Continuous
 62
     7
100
AcDbLine
 10
70.19306222820177
 20
103.5864552742958
 30
0.0
 11
91.19306222820174
 21
103.5864552742958
 31
0.0
  0
LINE
  5
482
330
480
100
AcDbEntity
  8
1
  6
Continuous
 62
     7
100
AcDbLine
 10
70.19306222820177
 20
82.91352197533111
 30
0.0
 11
70.19306222820177
 21
104.0864552742958
 31
0.0
  0
LINE
  5
483
330
480
100
AcDbEntity
  8
1
  6
Continuous
 62
     7
100
AcDbLine
 10
91.19306222820174
 20
82.91352197533111
 30
0.0
 11
91.19306222820174
 21
104.0864552742958
 31
0.0
  0
SOLID
  5
484
330
480
100
AcDbEntity
  8
1
 62
     7
100
AcDbTrace
 10
71.69306222820177
 20
103.7839340206769
 30
0.0
 11
71.69306222820177
 21
103.3889765279147
 31
0.0
 12
70.19306222820177
 22
103.5864552742958
 32
0.0
 13
70.19306222820177
 23
103.5864552742958
 33
0.0
  0
SOLID
  5
485
330
480
100
AcDbEntity
  8
1
 62
     7
100
AcDbTrace
 10
89.69306222820174
 20
103.3889765279147
 30
0.0
 11
89.69306222820174
 21
103.7839340206769
 31
0.0
 12
91.19306222820174
 22
103.5864552742958
 32
0.0
 13
91.19306222820174
 23
103.5864552742958
 33
0.0
  0
MTEXT
  5
486
330
480
100
AcDbEntity
  8
1
 62
     7
100
AcDbMText
 10
79.79306222820176
 20
104.5864552742958
 30
0.0
 40
1.5
 41
0.0
 71
     7
 72
     1
  1
21
  7
CONVERTER_13
 11
0.9999999999970619
 21
2.424068405545306E-6
 31
0.0
 73
     1
 44
0.60024009603842
  0
ENDBLK
  5
488
330
480
100
AcDbEntity
  8
0
100
AcDbBlockEnd
  0
BLOCK
  5
492
330
48B
100
AcDbEntity
  8
0
100
AcDbBlockBegin
  2
*D4
 70
     1
 10
0.0
 20
0.0
 30
0.0
  3
*D4
  1

  0
LINE
  5
48C
330
48B
100
AcDbEntity
  8
1
  6
Continuous
 62
     7
100
AcDbLine
 10
21.5014843823256
 20
93.9635219753311
 30
0.0
 11
21.5014843823256
 21
63.16352197533108
 31
0.0
  0
LINE
  5
48D
330
48B
100
AcDbEntity
  8
1
  6
Continuous
 62
     7
100
AcDbLine
 10
31.69306180127358
 20
93.9635219753311
 30
0.0
 11
21.0014843823256
 21
93.9635219753311
 31
0.0
  0
LINE
  5
48E
330
48B
100
AcDbEntity
  8
1
  6
Continuous
 62
     7
100
AcDbLine
 10
29.44306180127358
 20
63.16352197533108
 30
0.0
 11
21.0014843823256
 21
63.16352197533108
 31
0.0
  0
SOLID
  5
48F
330
48B
100
AcDbEntity
  8
1
 62
     7
100
AcDbTrace
 10
21.69896312870669
 20
92.4635219753311
 30
0.0
 11
21.30400563594451
 21
92.4635219753311
 31
0.0
 12
21.5014843823256
 22
93.9635219753311
 32
0.0
 13
21.5014843823256
 23
93.9635219753311
 33
0.0
  0
SOLID
  5
490
330
48B
100
AcDbEntity
  8
1
 62
     7
100
AcDbTrace
 10
21.30400563594451
 20
64.66352197533108
 30
0.0
 11
21.69896312870669
 21
64.66352197533108
 31
0.0
 12
21.5014843823256
 22
63.16352197533108
 32
0.0
 13
21.5014843823256
 23
63.16352197533108
 33
0.0
  0
MTEXT
  5
491
330
48B
100
AcDbEntity
  8
1
 62
     7
100
AcDbMText
 10
20.3514843823256
 20
76.5010219753311
 30
0.0
 40
1.5
 41
0.0
 71
     7
 72
     1
  1
30,8
  7
CONVERTER_13
 11
0.0
 21
1.0
 31
0.0
 73
     1
 44
0.60024009603842
  0
ENDBLK
  5
493
330
48B
100
AcDbEntity
  8
0
100
AcDbBlockEnd
  0
ENDSEC
  0
SECTION
  2
ENTITIES
  0
INSERT
  5
4A
330
1F
100
AcDbEntity
  8
1
100
AcDbBlockReference
  2
_dummy_frame
 10
21.69306184666161
 20
25.3135215975532
 30
0.0
  0
LINE
  5
4C
330
1F
100
AcDbEntity
  8
1
  6
Continuous
 62
     7
100
AcDbLine
 10
10.50000000000006
 20
10.0
 30
0.0
 11
102.5000000000001
 21
10.0
 31
0.0
  0
LINE
  5
4D
330
1F
100
AcDbEntity
  8
1
  6
Continuous
 62
     7
100
AcDbLine
 10
10.50000000000006
 20
2.49999999999994
 30
0.0
 11
102.5000000000001
 21
2.49999999999994
 31
0.0
  0
LINE
  5
4E
330
1F
100
AcDbEntity
  8
1
  6
Continuous
 62
     7
100
AcDbLine
 10
23.00000000000011
 20
17.5
 30
0.0
 11
23.00000000000011
 21
20.0
 31
0.0
  0
LINE
  5
4F
330
1F
100
AcDbEntity
  8
1
  6
Continuous
 62
     7
100
AcDbLine
 10
14.00000000000006
 20
17.5
 30
0.0
 11
14.00000000000006
 21
20.0
 31
0.0
  0
LINE
  5
50
330
1F
100
AcDbEntity
  8
1
  6
Continuous
 62
     7
100
AcDbLine
 10
10.50000000000006
 20
20.0
 30
0.0
 11
102.5000000000001
 21
20.0
 31
0.0
  0
LINE
  5
51
330
1F
100
AcDbEntity
  8
1
  6
Continuous
 62
     7
100
AcDbLine
 10
23.00000000000011
 20
15.0
 30
0.0
 11
23.00000000000011
 21
17.5
 31
0.0
  0
LINE
  5
52
330
1F
100
AcDbEntity
  8
1
  6
Continuous
 62
     7
100
AcDbLine
 10
14.00000000000006
 20
15.0
 30
0.0
 11
14.00000000000006
 21
17.5
 31
0.0
  0
LINE
  5
53
330
1F
100
AcDbEntity
  8
1
  6
Continuous
 62
     7
100
AcDbLine
 10
10.50000000000006
 20
17.5
 30
0.0
 11
102.5000000000001
 21
17.5
 31
0.0
  0
LINE
  5
54
330
1F
100
AcDbEntity
  8
1
  6
Continuous
 62
     7
100
AcDbLine
 10
23.00000000000011
 20
12.5
 30
0.0
 11
23.00000000000011
 21
15.0
 31
0.0
  0
LINE
  5
55
330
1F
100
AcDbEntity
  8
1
  6
Continuous
 62
     7
100
AcDbLine
 10
14.00000000000006
 20
12.5
 30
0.0
 11
14.00000000000006
 21
15.0
 31
0.0
  0
LINE
  5
56
330
1F
100
AcDbEntity
  8
1
  6
Continuous
 62
     7
100
AcDbLine
 10
10.50000000000006
 20
15.0
 30
0.0
 11
102.5000000000001
 21
15.0
 31
0.0
  0
LINE
  5
57
330
1F
100
AcDbEntity
  8
1
  6
Continuous
 62
     7
100
AcDbLine
 10
23.00000000000011
 20
10.0
 30
0.0
 11
23.00000000000011
 21
12.5
 31
0.0
  0
LINE
  5
58
330
1F
100
AcDbEntity
  8
1
  6
Continuous
 62
     7
100
AcDbLine
 10
14.00000000000006
 20
10.0
 30
0.0
 11
14.00000000000006
 21
12.5
 31
0.0
  0
LINE
  5
59
330
1F
100
AcDbEntity
  8
1
  6
Continuous
 62
     7
100
AcDbLine
 10
10.50000000000006
 20
12.5
 30
0.0
 11
102.5000000000001
 21
12.5
 31
0.0
  0
LINE
  5
5A
102
{ACAD_REACTORS
330
496
102
}
330
1F
100
AcDbEntity
  8
1
  6
Continuous
 62
     7
100
AcDbLine
 10
97.92143741995295
 20
5.27900104019017
 30
0.0
 11
97.25477075328635
 21
4.89438565557487
 31
0.0
  0
LINE
  5
5B
102
{ACAD_REACTORS
330
496
102
}
330
1F
100
AcDbEntity
  8
1
  6
Continuous
 62
     7
100
AcDbLine
 10
97.3381503443714
 20
5.32731826632397
 30
0.0
 11
97.7548632687898
 21
5.56772956887312
 31
0.0
  0
LINE
  5
5C
102
{ACAD_REACTORS
330
496
102
}
330
1F
100
AcDbEntity
  8
1
  6
Continuous
 62
     7
100
AcDbLine
 10
97.3381503443714
 20
6.08333333333332
 30
0.0
 11
97.3381503443714
 21
5.32731826632397
 31
0.0
  0
LINE
  5
5D
102
{ACAD_REACTORS
330
496
102
}
330
1F
100
AcDbEntity
  8
1
  6
Continuous
 62
     7
100
AcDbLine
 10
97.8381503443714
 20
6.08333333333332
 30
0.0
 11
97.3381503443714
 21
6.08333333333332
 31
0.0
  0
LINE
  5
5E
102
{ACAD_REACTORS
330
496
102
}
330
1F
100
AcDbEntity
  8
1
  6
Continuous
 62
     7
100
AcDbLine
 10
97.3381503443714
 20
6.41666666666663
 30
0.0
 11
97.8381503443714
 21
6.41666666666663
 31
0.0
  0
LINE
  5
5F
102
{ACAD_REACTORS
330
496
102
}
330
1F
100
AcDbEntity
  8
1
  6
Continuous
 62
     7
100
AcDbLine
 10
97.3381503443714
 20
7.17268173367597
 30
0.0
 11
97.3381503443714
 21
6.41666666666663
 31
0.0
  0
LINE
  5
60
102
{ACAD_REACTORS
330
496
102
}
330
1F
100
AcDbEntity
  8
1
  6
Continuous
 62
     7
100
AcDbLine
 10
97.7548632687898
 20
6.93227043112688
 30
0.0
 11
97.3381503443714
 21
7.17268173367597
 31
0.0
  0
LINE
  5
61
102
{ACAD_REACTORS
330
496
102
}
330
1F
100
AcDbEntity
  8
1
  6
Continuous
 62
     7
100
AcDbLine
 10
97.25477075328635
 20
7.60561434442513
 30
0.0
 11
97.92143741995295
 21
7.22099895980972
 31
0.0
  0
LINE
  5
62
102
{ACAD_REACTORS
330
497
102
}
330
1F
100
AcDbEntity
  8
1
  6
Continuous
 62
     7
100
AcDbLine
 10
93.6714836777047
 20
5.42336530453161
 30
0.0
 11
93.6714836777047
 21
7.07663469546833
 31
0.0
  0
LINE
  5
63
102
{ACAD_REACTORS
330
497
102
}
330
1F
100
AcDbEntity
  8
1
  6
Continuous
 62
     7
100
AcDbLine
 10
94.00481701103806
 20
5.51962595863165
 30
0.0
 11
94.00481701103806
 21
5.42336530453161
 31
0.0
  0
LINE
  5
64
102
{ACAD_REACTORS
330
497
102
}
330
1F
100
AcDbEntity
  8
1
  6
Continuous
 62
     7
100
AcDbLine
 10
94.00481701103806
 20
7.07663469546833
 30
0.0
 11
94.00481701103806
 21
5.51962595863165
 31
0.0
  0
LINE
  5
65
102
{ACAD_REACTORS
330
498
102
}
330
1F
100
AcDbEntity
  8
1
  6
Continuous
 62
     7
100
AcDbLine
 10
95.5881966021231
 20
4.2213087324979
 30
0.0
 11
94.50490952654155
 21
4.84628204533345
 31
0.0
  0
LINE
  5
66
102
{ACAD_REACTORS
330
498
102
}
330
1F
100
AcDbEntity
  8
1
  6
Continuous
 62
     7
100
AcDbLine
 10
94.6714836777047
 20
5.13501057401635
 30
0.0
 11
95.75477075328635
 21
4.5100372611808
 31
0.0
  0
LINE
  5
67
102
{ACAD_REACTORS
330
498
102
}
330
1F
100
AcDbEntity
  8
1
  6
Continuous
 62
     7
100
AcDbLine
 10
94.6714836777047
 20
7.46125008008369
 30
0.0
 11
94.6714836777047
 21
5.13501057401635
 31
0.0
  0
LINE
  5
68
102
{ACAD_REACTORS
330
498
102
}
330
1F
100
AcDbEntity
  8
1
  6
Continuous
 62
     7
100
AcDbLine
 10
94.3381503443714
 20
5.13501057401629
 30
0.0
 11
94.3381503443714
 21
7.46125008008369
 31
0.0
  0
LINE
  5
69
102
{ACAD_REACTORS
330
499
102
}
330
1F
100
AcDbEntity
  8
1
  6
Continuous
 62
     7
100
AcDbLine
 10
96.42426683589305
 20
7.93185020913614
 30
0.0
 11
95.8381503443714
 21
6.91666666666663
 31
0.0
  0
LINE
  5
6A
102
{ACAD_REACTORS
330
499
102
}
330
1F
100
AcDbEntity
  8
1
  6
Continuous
 62
     7
100
AcDbLine
 10
96.6714836777047
 20
4.6541345353009
 30
0.0
 11
96.6714836777047
 21
7.86560865601728
 31
0.0
  0
LINE
  5
6B
102
{ACAD_REACTORS
330
499
102
}
330
1F
100
AcDbEntity
  8
1
  6
Continuous
 62
     7
100
AcDbLine
 10
96.3381503443714
 20
6.25
 30
0.0
 11
96.3381503443714
 21
4.6541345353009
 31
0.0
  0
LINE
  5
6C
102
{ACAD_REACTORS
330
499
102
}
330
1F
100
AcDbEntity
  8
1
  6
Continuous
 62
     7
100
AcDbLine
 10
95.3381503443714
 20
5.42379253631645
 30
0.0
 11
95.3381503443714
 21
6.25
 31
0.0
  0
LINE
  5
6D
102
{ACAD_REACTORS
330
499
102
}
330
1F
100
AcDbEntity
  8
1
  6
Continuous
 62
     7
100
AcDbLine
 10
95.00481701103806
 20
6.25
 30
0.0
 11
95.00481701103806
 21
5.42379253631645
 31
0.0
  0
LINE
  5
6E
102
{ACAD_REACTORS
330
499
102
}
330
1F
100
AcDbEntity
  8
1
  6
Continuous
 62
     7
100
AcDbLine
 10
95.25203385284975
 20
7.93185020913614
 30
0.0
 11
95.8381503443714
 21
6.91666666666663
 31
0.0
  0
LINE
  5
6F
102
{ACAD_REACTORS
330
499
102
}
330
1F
100
AcDbEntity
  8
1
  6
Continuous
 62
     7
100
AcDbLine
 10
95.00481701103806
 20
6.25
 30
0.0
 11
95.00481701103806
 21
7.86560865601728
 31
0.0
  0
LINE
  5
70
330
1F
100
AcDbEntity
  8
1
  6
Continuous
 62
     7
100
AcDbLine
 10
95.8381503443714
 20
3.75
 30
0.0
 11
91.6299327068006
 21
6.17781786782928
 31
0.0
  0
LINE
  5
71
330
1F
100
AcDbEntity
  8
1
  6
Continuous
 62
     7
100
AcDbLine
 10
100.0463679819422
 20
6.17781786782928
 30
0.0
 11
95.8381503443714
 21
3.75
 31
0.0
  0
LINE
  5
72
330
1F
100
AcDbEntity
  8
1
  6
Continuous
 62
     7
100
AcDbLine
 10
95.8381503443714
 20
8.75
 30
0.0
 11
100.0463679819422
 21
6.32218213217067
 31
0.0
  0
LINE
  5
73
330
1F
100
AcDbEntity
  8
1
  6
Continuous
 62
     7
100
AcDbLine
 10
91.6299327068006
 20
6.32218213217067
 30
0.0
 11
95.8381503443714
 21
8.75
 31
0.0
  0
LINE
  5
74
102
{ACAD_REACTORS
330
499
102
}
330
1F
100
AcDbEntity
  8
1
  6
Continuous
 62
     7
100
AcDbLine
 10
95.3381503443714
 20
7.11602540378442
 30
0.0
 11
95.3381503443714
 21
6.25
 31
0.0
  0
LINE
  5
75
102
{ACAD_REACTORS
330
499
102
}
330
1F
100
AcDbEntity
  8
1
  6
Continuous
 62
     7
100
AcDbLine
 10
95.76598156072265
 20
6.375
 30
0.0
 11
95.3381503443714
 21
7.11602540378442
 31
0.0
  0
LINE
  5
76
102
{ACAD_REACTORS
330
499
102
}
330
1F
100
AcDbEntity
  8
1
  6
Continuous
 62
     7
100
AcDbLine
 10
96.3381503443714
 20
7.11602540378442
 30
0.0
 11
95.9103191280201
 21
6.375
 31
0.0
  0
LINE
  5
77
102
{ACAD_REACTORS
330
499
102
}
330
1F
100
AcDbEntity
  8
1
  6
Continuous
 62
     7
100
AcDbLine
 10
96.3381503443714
 20
6.25
 30
0.0
 11
96.3381503443714
 21
7.11602540378442
 31
0.0
  0
LINE
  5
78
102
{ACAD_REACTORS
330
496
102
}
330
1F
100
AcDbEntity
  8
1
  6
Continuous
 62
     7
100
AcDbLine
 10
97.0048170110381
 20
5.03874991991631
 30
0.0
 11
97.0048170110381
 21
7.46125008008369
 31
0.0
  0
LINE
  5
79
330
1F
100
AcDbEntity
  8
1
  6
Continuous
 62
     7
100
AcDbLine
 10
10.50000000000006
 20
146.0000000000001
 30
0.0
 11
10.50000000000006
 21
2.49999999999994
 31
0.0
  0
LINE
  5
7A
330
1F
100
AcDbEntity
  8
1
  6
Continuous
 62
     7
100
AcDbLine
 10
102.5000000000001
 20
146.0000000000001
 30
0.0
 11
10.50000000000006
 21
146.0000000000001
 31
0.0
  0
LINE
  5
7B
330
1F
100
AcDbEntity
  8
1
  6
Continuous
 62
     7
100
AcDbLine
 10
102.5000000000001
 20
2.49999999999994
 30
0.0
 11
102.5000000000001
 21
146.0000000000001
 31
0.0
  0
LINE
  5
7C
330
1F
100
AcDbEntity
  8
1
  6
Continuous
 62
     7
100
AcDbLine
 10
105.0000000000001
 20
148.5000000000001
 30
0.0
 11
0.0
 21
148.4999999999998
 31
0.0
  0
LINE
  5
7D
330
1F
100
AcDbEntity
  8
1
  6
Continuous
 62
     7
100
AcDbLine
 10
0.0
 20
148.4999999999998
 30
0.0
 11
0.0
 21
0.0
 31
0.0
  0
LINE
  5
7E
330
1F
100
AcDbEntity
  8
1
  6
Continuous
 62
     7
100
AcDbLine
 10
0.0
 20
0.0
 30
0.0
 11
105.0000000000001
 21
0.0
 31
0.0
  0
LINE
  5
7F
330
1F
100
AcDbEntity
  8
1
  6
Continuous
 62
     7
100
AcDbLine
 10
105.0000000000001
 20
0.0
 30
0.0
 11
105.0000000000001
 21
148.5000000000001
 31
0.0
  0
LINE
  5
80
330
1F
100
AcDbEntity
  8
1
  6
Continuous
 62
     7
100
AcDbLine
 10
0.0
 20
74.2499999999999
 30
0.0
 11
7.5
 21
74.2499999999999
 31
0.0
  0
LINE
  5
81
330
1F
100
AcDbEntity
  8
1
  6
Continuous
 62
     7
100
AcDbLine
 10
10.50000000000006
 20
4.99999999999993
 30
0.0
 11
25.50000000000005
 21
4.99999999999993
 31
0.0
  0
LINE
  5
82
330
1F
100
AcDbEntity
  8
1
  6
Continuous
 62
     7
100
AcDbLine
 10
25.50000000000005
 20
10.0
 30
0.0
 11
25.50000000000005
 21
2.5
 31
0.0
  0
LINE
  5
83
330
1F
100
AcDbEntity
  8
1
  6
Continuous
 62
     7
100
AcDbLine
 10
89.17630068874276
 20
10.0
 30
0.0
 11
89.17630068874276
 21
2.5
 31
0.0
  0
LINE
  5
84
330
1F
100
AcDbEntity
  8
1
  6
Continuous
 62
     7
100
AcDbLine
 10
80.50000000000006
 20
10.0
 30
0.0
 11
80.50000000000006
 21
2.5
 31
0.0
  0
LINE
  5
85
330
1F
100
AcDbEntity
  8
1
  6
Continuous
 62
     7
100
AcDbLine
 10
10.50000000000006
 20
10.0
 30
0.0
 11
10.50000000000006
 21
2.49999999999994
 31
0.0
  0
LINE
  5
86
330
1F
100
AcDbEntity
  8
1
  6
Continuous
 62
     7
100
AcDbLine
 10
10.50000000000006
 20
7.49999999999994
 30
0.0
 11
25.50000000000005
 21
7.49999999999994
 31
0.0
  0
LINE
  5
87
330
1F
100
AcDbEntity
  8
1
  6
Continuous
 62
     7
100
AcDbLine
 10
55.18830080438587
 20
4.20051792171099
 30
0.0
 11
56.18880922954897
 21
4.20051792171099
 31
0.0
  0
LINE
  5
88
330
1F
100
AcDbEntity
  8
1
  6
Continuous
 62
     7
100
AcDbLine
 10
55.18830080438587
 20
5.13608019125027
 30
0.0
 11
55.18830080438587
 21
4.20051792171099
 31
0.0
  0
LINE
  5
89
330
1F
100
AcDbEntity
  8
1
  6
Continuous
 62
     7
100
AcDbLine
 10
54.89543416752101
 20
3.32230028700066
 30
0.0
 11
55.4862351217807
 21
3.32230028700066
 31
0.0
  0
LINE
  5
8A
330
1F
100
AcDbEntity
  8
1
  6
Continuous
 62
     7
100
AcDbLine
 10
54.54414711363685
 20
3.7614091043558
 30
0.0
 11
55.83752217566481
 21
3.7614091043558
 31
0.0
  0
LINE
  5
8B
330
1F
100
AcDbEntity
  8
1
  6
Continuous
 62
     7
100
AcDbLine
 10
54.19286005975274
 20
4.20051792171099
 30
0.0
 11
55.18830080438587
 21
4.20051792171099
 31
0.0
  0
LINE
  5
8C
330
1F
100
AcDbEntity
  8
0
  6
Continuous
 62
     7
100
AcDbLine
 10
50.19306180127356
 20
123.5635215976238
 30
0.0
 11
50.19306180127356
 21
117.6635215976238
 31
0.0
  0
LINE
  5
8D
330
1F
100
AcDbEntity
  8
0
  6
Continuous
 62
     7
100
AcDbLine
 10
48.69306180127356
 20
123.5635215976238
 30
0.0
 11
48.69306180127356
 21
126.7635215976238
 31
0.0
  0
LINE
  5
8E
330
1F
100
AcDbEntity
  8
0
  6
Continuous
 62
     7
100
AcDbLine
 10
49.19306180127356
 20
123.5635215976238
 30
0.0
 11
48.99306180127357
 21
123.5635215976238
 31
0.0
  0
LINE
  5
8F
330
1F
100
AcDbEntity
  8
0
  6
Continuous
 62
     7
100
AcDbLine
 10
50.19306180127356
 20
123.5635215976238
 30
0.0
 11
49.19306180127356
 21
123.5635215976238
 31
0.0
  0
LINE
  5
90
330
1F
100
AcDbEntity
  8
0
  6
Continuous
 62
     7
100
AcDbLine
 10
48.99306180127357
 20
123.5635215976238
 30
0.0
 11
48.69306180127356
 21
123.5635215976238
 31
0.0
  0
LINE
  5
91
330
1F
100
AcDbEntity
  8
0
  6
Continuous
 62
     7
100
AcDbLine
 10
41.29306180127355
 20
121.8635215976239
 30
0.0
 11
41.29306180127355
 21
125.2635215976239
 31
0.0
  0
LINE
  5
92
330
1F
100
AcDbEntity
  8
0
  6
Continuous
 62
     7
100
AcDbLine
 10
49.19306180127356
 20
123.5635215976238
 30
0.0
 11
49.19306180127356
 21
123.6635215976238
 31
0.0
  0
LINE
  5
93
330
1F
100
AcDbEntity
  8
0
  6
Continuous
 62
     7
100
AcDbLine
 10
49.19306180127356
 20
126.6635215976238
 30
0.0
 11
49.19306180127356
 21
126.7635215976238
 31
0.0
  0
LINE
  5
94
330
1F
100
AcDbEntity
  8
0
  6
Continuous
 62
     7
100
AcDbLine
 10
50.19306180127356
 20
123.5635215976238
 30
0.0
 11
50.19306180127356
 21
123.6635215976238
 31
0.0
  0
LINE
  5
95
330
1F
100
AcDbEntity
  8
0
  6
Continuous
 62
     7
100
AcDbLine
 10
48.99306180127357
 20
123.6635215976238
 30
0.0
 11
48.99306180127357
 21
123.5635215976238
 31
0.0
  0
LINE
  5
96
330
1F
100
AcDbEntity
  8
0
  6
Continuous
 62
     7
100
AcDbLine
 10
48.99306180127357
 20
126.6635215976238
 30
0.0
 11
48.99306180127357
 21
123.6635215976238
 31
0.0
  0
LINE
  5
97
330
1F
100
AcDbEntity
  8
0
  6
Continuous
 62
     7
100
AcDbLine
 10
50.19306180127356
 20
126.7635215976238
 30
0.0
 11
50.19306180127356
 21
126.6635215976238
 31
0.0
  0
LINE
  5
98
330
1F
100
AcDbEntity
  8
0
  6
Continuous
 62
     7
100
AcDbLine
 10
50.19306180127356
 20
132.6635215976238
 30
0.0
 11
50.19306180127356
 21
126.7635215976238
 31
0.0
  0
LINE
  5
99
330
1F
100
AcDbEntity
  8
0
  6
Continuous
 62
     7
100
AcDbLine
 10
50.19306180127356
 20
126.6635215976238
 30
0.0
 11
50.19306180127356
 21
123.6635215976238
 31
0.0
  0
LINE
  5
9A
330
1F
100
AcDbEntity
  8
0
  6
Continuous
 62
     7
100
AcDbLine
 10
48.69306180127356
 20
126.7635215976238
 30
0.0
 11
48.99306180127357
 21
126.7635215976238
 31
0.0
  0
LINE
  5
9B
330
1F
100
AcDbEntity
  8
0
  6
Continuous
 62
     7
100
AcDbLine
 10
48.99306180127357
 20
126.7635215976238
 30
0.0
 11
48.99306180127357
 21
126.6635215976238
 31
0.0
  0
LINE
  5
9C
330
1F
100
AcDbEntity
  8
0
  6
Continuous
 62
     7
100
AcDbLine
 10
45.196079186547
 20
126.1978562060096
 30
0.0
 11
46.25810099698313
 21
128.2379811223208
 31
0.0
  0
LINE
  5
9D
330
1F
100
AcDbEntity
  8
0
  6
Continuous
 62
     7
100
AcDbLine
 10
48.99306180127357
 20
126.7635215976238
 30
0.0
 11
49.19306180127356
 21
126.7635215976238
 31
0.0
  0
LINE
  5
9E
330
1F
100
AcDbEntity
  8
0
  6
Continuous
 62
     7
100
AcDbLine
 10
49.19306180127356
 20
126.6635215976238
 30
0.0
 11
48.99306180127357
 21
126.6635215976238
 31
0.0
  0
LINE
  5
9F
330
1F
100
AcDbEntity
  8
0
  6
Continuous
 62
     7
100
AcDbLine
 10
50.19306180127356
 20
126.6635215976238
 30
0.0
 11
49.19306180127356
 21
126.6635215976238
 31
0.0
  0
LINE
  5
A0
330
1F
100
AcDbEntity
  8
0
  6
Continuous
 62
     7
100
AcDbLine
 10
49.19306180127356
 20
126.7635215976238
 30
0.0
 11
50.19306180127356
 21
126.7635215976238
 31
0.0
  0
LINE
  5
A1
330
1F
100
AcDbEntity
  8
0
  6
Continuous
 62
     7
100
AcDbLine
 10
43.77447066409042
 20
129.5308772393766
 30
0.0
 11
42.71244885366471
 21
127.49075232306
 31
0.0
  0
LINE
  5
A2
330
1F
100
AcDbEntity
  8
0
  6
Continuous
 62
     7
100
AcDbLine
 10
42.71244885366471
 20
127.49075232306
 30
0.0
 11
45.196079186547
 21
126.1978562060096
 31
0.0
  0
LINE
  5
A3
330
1F
100
AcDbEntity
  8
0
  6
Continuous
 62
     7
100
AcDbLine
 10
43.77447066409042
 20
129.5308772393766
 30
0.0
 11
46.25810099698313
 21
128.2379811223208
 31
0.0
  0
LINE
  5
A4
330
1F
100
AcDbEntity
  8
0
  6
Continuous
 62
     7
100
AcDbLine
 10
47.5675332551244
 20
129.645799828568
 30
0.0
 11
47.5675332551244
 21
128.703299828568
 31
0.0
  0
LINE
  5
A5
330
1F
100
AcDbEntity
  8
0
  6
Continuous
 62
     7
100
AcDbLine
 10
47.5675332551244
 20
128.703299828568
 30
0.0
 11
47.7300332551244
 21
128.703299828568
 31
0.0
  0
LINE
  5
A6
330
1F
100
AcDbEntity
  8
0
  6
Continuous
 62
     7
100
AcDbLine
 10
47.42128325512442
 20
129.8082998285681
 30
0.0
 11
47.37253325512441
 21
129.7920498285681
 31
0.0
  0
LINE
  5
A7
330
1F
100
AcDbEntity
  8
0
  6
Continuous
 62
     7
100
AcDbLine
 10
47.48628325512442
 20
129.840799828568
 30
0.0
 11
47.42128325512442
 21
129.8082998285681
 31
0.0
  0
LINE
  5
A8
330
1F
100
AcDbEntity
  8
0
  6
Continuous
 62
     7
100
AcDbLine
 10
47.5350332551244
 20
129.889549828568
 30
0.0
 11
47.48628325512442
 21
129.840799828568
 31
0.0
  0
LINE
  5
A9
330
1F
100
AcDbEntity
  8
0
  6
Continuous
 62
     7
100
AcDbLine
 10
47.58378325512442
 20
129.954549828568
 30
0.0
 11
47.5350332551244
 21
129.889549828568
 31
0.0
  0
LINE
  5
AA
330
1F
100
AcDbEntity
  8
0
  6
Continuous
 62
     7
100
AcDbLine
 10
47.6000332551244
 20
130.003299828568
 30
0.0
 11
47.58378325512442
 21
129.954549828568
 31
0.0
  0
LINE
  5
AB
330
1F
100
AcDbEntity
  8
0
  6
Continuous
 62
     7
100
AcDbLine
 10
47.7300332551244
 20
130.003299828568
 30
0.0
 11
47.6000332551244
 21
130.003299828568
 31
0.0
  0
LINE
  5
AC
330
1F
100
AcDbEntity
  8
0
  6
Continuous
 62
     7
100
AcDbLine
 10
47.7300332551244
 20
128.703299828568
 30
0.0
 11
47.7300332551244
 21
130.003299828568
 31
0.0
  0
LINE
  5
AD
330
1F
100
AcDbEntity
  8
0
  6
Continuous
 62
     7
100
AcDbLine
 10
44.705265169217
 20
131.7520529616524
 30
0.0
 11
47.54369983538729
 21
130.2744573993002
 31
0.0
  0
LINE
  5
AE
330
1F
100
AcDbEntity
  8
0
  6
Continuous
 62
     7
100
AcDbLine
 10
49.19306180127356
 20
123.6635215976238
 30
0.0
 11
48.99306180127357
 21
123.6635215976238
 31
0.0
  0
LINE
  5
AF
330
1F
100
AcDbEntity
  8
0
  6
Continuous
 62
     7
100
AcDbLine
 10
50.19306180127356
 20
123.6635215976238
 30
0.0
 11
49.19306180127356
 21
123.6635215976238
 31
0.0
  0
LINE
  5
B0
330
1F
100
AcDbEntity
  8
0
  6
Continuous
 62
     7
100
AcDbLine
 10
41.29306180127355
 20
135.5421795303342
 30
0.0
 11
38.09306180127356
 21
135.5421795303342
 31
0.0
  0
LINE
  5
B1
330
1F
100
AcDbEntity
  8
0
  6
Continuous
 62
     7
100
AcDbLine
 10
42.4930618012736
 20
137.2135215976238
 30
0.0
 11
42.4930618012736
 21
136.8635215976238
 31
0.0
  0
LINE
  5
B2
330
1F
100
AcDbEntity
  8
0
  6
Continuous
 62
     7
100
AcDbLine
 10
42.4930618012736
 20
137.2135215976238
 30
0.0
 11
38.01631271952164
 21
137.2135215976238
 31
0.0
  0
LINE
  5
B3
330
1F
100
AcDbEntity
  8
0
  6
Continuous
 62
     7
100
AcDbLine
 10
41.29306180127355
 20
135.5421795303342
 30
0.0
 11
41.89306180127358
 21
136.1421795303342
 31
0.0
  0
LINE
  5
B4
330
1F
100
AcDbEntity
  8
0
  6
Continuous
 62
     7
100
AcDbLine
 10
41.29306180127355
 20
135.5421795303342
 30
0.0
 11
41.29306180127355
 21
133.8635215976238
 31
0.0
  0
LINE
  5
B5
330
1F
100
AcDbEntity
  8
0
  6
Continuous
 62
     7
100
AcDbLine
 10
47.29128325512443
 20
129.7757998285681
 30
0.0
 11
47.2587832551244
 21
129.7757998285681
 31
0.0
  0
LINE
  5
B6
330
1F
100
AcDbEntity
  8
0
  6
Continuous
 62
     7
100
AcDbLine
 10
47.2587832551244
 20
129.7757998285681
 30
0.0
 11
47.2587832551244
 21
129.645799828568
 31
0.0
  0
LINE
  5
B7
330
1F
100
AcDbEntity
  8
0
  6
Continuous
 62
     7
100
AcDbLine
 10
47.37253325512441
 20
129.7920498285681
 30
0.0
 11
47.29128325512443
 21
129.7757998285681
 31
0.0
  0
LINE
  5
B8
330
1F
100
AcDbEntity
  8
0
  6
Continuous
 62
     7
100
AcDbLine
 10
47.2587832551244
 20
129.645799828568
 30
0.0
 11
47.5675332551244
 21
129.645799828568
 31
0.0
  0
LINE
  5
B9
330
1F
100
AcDbEntity
  8
0
  6
Continuous
 62
     7
100
AcDbLine
 10
49.0674702590629
 20
133.2015931487884
 30
0.0
 11
46.22903559289259
 21
134.6791887111405
 31
0.0
  0
LINE
  5
BA
330
1F
100
AcDbEntity
  8
0
  6
Continuous
 62
     7
100
AcDbLine
 10
46.22903559289259
 20
134.6791887111405
 30
0.0
 11
44.705265169217
 21
131.7520529616524
 31
0.0
  0
LINE
  5
BB
330
1F
100
AcDbEntity
  8
0
  6
Continuous
 62
     7
100
AcDbLine
 10
47.54369983538729
 20
130.2744573993002
 30
0.0
 11
49.0674702590629
 21
133.2015931487884
 31
0.0
  0
LINE
  5
BC
330
1F
100
AcDbEntity
  8
0
  6
Continuous
 62
     7
100
AcDbLine
 10
38.09306180127354
 20
121.8635215976239
 30
0.0
 11
41.29306180127355
 21
121.8635215976239
 31
0.0
  0
LINE
  5
BD
330
1F
100
AcDbEntity
  8
0
  6
Continuous
 62
     7
100
AcDbLine
 10
39.43131030358219
 20
136.1421795302957
 30
0.0
 11
39.93131030356386
 21
136.1421795302963
 31
0.0
  0
LINE
  5
BE
330
1F
100
AcDbEntity
  8
0
  6
Continuous
 62
     7
100
AcDbLine
 10
38.52633561231579
 20
137.5596911909566
 30
0.0
 11
38.52633561231579
 21
137.8078127676288
 31
0.0
  0
LINE
  5
BF
330
1F
100
AcDbEntity
  8
0
  6
Continuous
 62
     7
100
AcDbLine
 10
41.29306180127355
 20
125.2635215976239
 30
0.0
 11
38.09306180127356
 21
125.2635215976239
 31
0.0
  0
LINE
  5
C0
330
1F
100
AcDbEntity
  8
0
  6
Continuous
 62
     7
100
AcDbLine
 10
38.29306180127568
 20
119.4635215976239
 30
0.0
 11
41.09306180127115
 21
119.463521597623
 31
0.0
  0
LINE
  5
C1
330
1F
100
AcDbEntity
  8
0
  6
Continuous
 62
     7
100
AcDbLine
 10
38.29306180127387
 20
117.1635215976248
 30
0.0
 11
41.09306180127356
 21
117.1635215976239
 31
0.0
  0
LINE
  5
C2
330
1F
100
AcDbEntity
  8
0
  6
Continuous
 62
     7
100
AcDbLine
 10
47.19306180127356
 20
114.6635215976238
 30
0.0
 11
32.19306180127356
 21
114.6635215976238
 31
0.0
  0
LINE
  5
C3
330
1F
100
AcDbEntity
  8
0
  6
Continuous
 62
     7
100
AcDbLine
 10
37.46795052409073
 20
136.8421795303342
 30
0.0
 11
36.80385775863485
 21
136.8421795303342
 31
0.0
  0
LINE
  5
C4
330
1F
100
AcDbEntity
  8
0
  6
Continuous
 62
     7
100
AcDbLine
 10
37.55410977931305
 20
136.8421795303342
 30
0.0
 11
37.46795052409073
 21
136.8421795303342
 31
0.0
  0
LINE
  5
C5
330
1F
100
AcDbEntity
  8
0
  6
Continuous
 62
     7
100
AcDbLine
 10
36.89306180127358
 20
136.8635215976238
 30
0.0
 11
39.69306180127359
 21
136.8635215976238
 31
0.0
  0
LINE
  5
C6
330
1F
100
AcDbEntity
  8
0
  6
Continuous
 62
     7
100
AcDbLine
 10
42.5822658439123
 20
136.8421795303342
 30
0.0
 11
41.90743843059565
 21
136.8421795303342
 31
0.0
  0
LINE
  5
C7
330
1F
100
AcDbEntity
  8
0
  6
Continuous
 62
     7
100
AcDbLine
 10
39.43131030357338
 20
136.8421795303342
 30
0.0
 11
37.82048706484457
 21
136.8421795303342
 31
0.0
  0
LINE
  5
C8
330
1F
100
AcDbEntity
  8
0
  6
Continuous
 62
     7
100
AcDbLine
 10
32.73011579998865
 20
120.3117195531324
 30
0.0
 11
32.64886579998864
 21
120.3279695531324
 31
0.0
  0
LINE
  5
C9
330
1F
100
AcDbEntity
  8
0
  6
Continuous
 62
     7
100
AcDbLine
 10
32.64886579998864
 20
120.3279695531324
 30
0.0
 11
32.55136579998865
 21
120.3279695531324
 31
0.0
  0
LINE
  5
CA
330
1F
100
AcDbEntity
  8
0
  6
Continuous
 62
     7
100
AcDbLine
 10
32.97386579998866
 20
120.0192195531324
 30
0.0
 11
32.95761579998865
 21
120.1004695531324
 31
0.0
  0
LINE
  5
CB
330
1F
100
AcDbEntity
  8
0
  6
Continuous
 62
     7
100
AcDbLine
 10
32.89261579998865
 20
120.1979695531324
 30
0.0
 11
32.82761579998865
 21
120.2629695531324
 31
0.0
  0
LINE
  5
CC
330
1F
100
AcDbEntity
  8
0
  6
Continuous
 62
     7
100
AcDbLine
 10
32.55136579998865
 20
120.3279695531324
 30
0.0
 11
32.47011579998863
 21
120.3117195531324
 31
0.0
  0
LINE
  5
CD
330
1F
100
AcDbEntity
  8
0
  6
Continuous
 62
     7
100
AcDbLine
 10
33.03886579998866
 20
119.4667195531324
 30
0.0
 11
33.00636579998866
 21
119.5804695531324
 31
0.0
  0
LINE
  5
CE
330
1F
100
AcDbEntity
  8
0
  6
Continuous
 62
     7
100
AcDbLine
 10
32.82761579998865
 20
120.2629695531324
 30
0.0
 11
32.73011579998865
 21
120.3117195531324
 31
0.0
  0
LINE
  5
CF
330
1F
100
AcDbEntity
  8
0
  6
Continuous
 62
     7
100
AcDbLine
 10
32.95761579998865
 20
120.1004695531324
 30
0.0
 11
32.89261579998865
 21
120.1979695531324
 31
0.0
  0
LINE
  5
D0
330
1F
100
AcDbEntity
  8
0
  6
Continuous
 62
     7
100
AcDbLine
 10
32.95761579998865
 20
119.1904695531324
 30
0.0
 11
33.00636579998866
 21
119.2717195531324
 31
0.0
  0
LINE
  5
D1
330
1F
100
AcDbEntity
  8
0
  6
Continuous
 62
     7
100
AcDbLine
 10
32.87636579998866
 20
119.1092195531324
 30
0.0
 11
32.95761579998865
 21
119.1904695531324
 31
0.0
  0
LINE
  5
D2
330
1F
100
AcDbEntity
  8
0
  6
Continuous
 62
     7
100
AcDbLine
 10
32.77886579998864
 20
119.0604695531324
 30
0.0
 11
32.87636579998866
 21
119.1092195531324
 31
0.0
  0
LINE
  5
D3
330
1F
100
AcDbEntity
  8
0
  6
Continuous
 62
     7
100
AcDbLine
 10
32.64886579998864
 20
119.0279695531324
 30
0.0
 11
32.77886579998864
 21
119.0604695531324
 31
0.0
  0
LINE
  5
D4
330
1F
100
AcDbEntity
  8
0
  6
Continuous
 62
     7
100
AcDbLine
 10
32.55136579998865
 20
119.0279695531324
 30
0.0
 11
32.64886579998864
 21
119.0279695531324
 31
0.0
  0
LINE
  5
D5
330
1F
100
AcDbEntity
  8
0
  6
Continuous
 62
     7
100
AcDbLine
 10
32.42136579998865
 20
119.0604695531324
 30
0.0
 11
32.55136579998865
 21
119.0279695531324
 31
0.0
  0
LINE
  5
D6
330
1F
100
AcDbEntity
  8
0
  6
Continuous
 62
     7
100
AcDbLine
 10
32.32386579998865
 20
119.1092195531324
 30
0.0
 11
32.42136579998865
 21
119.0604695531324
 31
0.0
  0
LINE
  5
D7
330
1F
100
AcDbEntity
  8
0
  6
Continuous
 62
     7
100
AcDbLine
 10
32.24261579998864
 20
119.1904695531324
 30
0.0
 11
32.32386579998865
 21
119.1092195531324
 31
0.0
  0
LINE
  5
D8
330
1F
100
AcDbEntity
  8
0
  6
Continuous
 62
     7
100
AcDbLine
 10
36.29306180127355
 20
118.9635215976238
 30
0.0
 11
33.09306180127356
 21
118.9635215976238
 31
0.0
  0
LINE
  5
D9
330
1F
100
AcDbEntity
  8
0
  6
Continuous
 62
     7
100
AcDbLine
 10
32.82761579998865
 20
119.3367195531324
 30
0.0
 11
32.77886579998864
 21
119.2717195531324
 31
0.0
  0
LINE
  5
DA
330
1F
100
AcDbEntity
  8
0
  6
Continuous
 62
     7
100
AcDbLine
 10
32.77886579998864
 20
119.2717195531324
 30
0.0
 11
32.71386579998864
 21
119.2229695531324
 31
0.0
  0
LINE
  5
DB
330
1F
100
AcDbEntity
  8
0
  6
Continuous
 62
     7
100
AcDbLine
 10
32.71386579998864
 20
119.2229695531324
 30
0.0
 11
32.63261579998866
 21
119.2067195531324
 31
0.0
  0
LINE
  5
DC
330
1F
100
AcDbEntity
  8
0
  6
Continuous
 62
     7
100
AcDbLine
 10
32.63261579998866
 20
119.2067195531324
 30
0.0
 11
32.56761579998866
 21
119.2067195531324
 31
0.0
  0
LINE
  5
DD
330
1F
100
AcDbEntity
  8
0
  6
Continuous
 62
     7
100
AcDbLine
 10
32.56761579998866
 20
119.2067195531324
 30
0.0
 11
32.48636579998865
 21
119.2229695531324
 31
0.0
  0
LINE
  5
DE
330
1F
100
AcDbEntity
  8
0
  6
Continuous
 62
     7
100
AcDbLine
 10
32.48636579998865
 20
119.2229695531324
 30
0.0
 11
32.42136579998865
 21
119.2717195531324
 31
0.0
  0
LINE
  5
DF
330
1F
100
AcDbEntity
  8
0
  6
Continuous
 62
     7
100
AcDbLine
 10
32.42136579998865
 20
119.2717195531324
 30
0.0
 11
32.37261579998864
 21
119.3367195531324
 31
0.0
  0
LINE
  5
E0
330
1F
100
AcDbEntity
  8
0
  6
Continuous
 62
     7
100
AcDbLine
 10
33.00636579998866
 20
119.2717195531324
 30
0.0
 11
33.03886579998866
 21
119.3854695531324
 31
0.0
  0
LINE
  5
E1
330
1F
100
AcDbEntity
  8
0
  6
Continuous
 62
     7
100
AcDbLine
 10
32.19386579998866
 20
119.2717195531324
 30
0.0
 11
32.24261579998864
 21
119.1904695531324
 31
0.0
  0
LINE
  5
E2
330
1F
100
AcDbEntity
  8
0
  6
Continuous
 62
     7
100
AcDbLine
 10
32.86011579998865
 20
119.7429695531324
 30
0.0
 11
32.89261579998865
 21
119.7754695531324
 31
0.0
  0
LINE
  5
E3
330
1F
100
AcDbEntity
  8
0
  6
Continuous
 62
     7
100
AcDbLine
 10
32.82761579998865
 20
119.5317195531324
 30
0.0
 11
32.84386579998864
 21
119.4667195531324
 31
0.0
  0
LINE
  5
E4
330
1F
100
AcDbEntity
  8
0
  6
Continuous
 62
     7
100
AcDbLine
 10
32.74636579998864
 20
119.8567195531324
 30
0.0
 11
32.69761579998865
 21
119.8242195531324
 31
0.0
  0
LINE
  5
E5
330
1F
100
AcDbEntity
  8
0
  6
Continuous
 62
     7
100
AcDbLine
 10
32.77886579998864
 20
119.9054695531324
 30
0.0
 11
32.74636579998864
 21
119.8567195531324
 31
0.0
  0
LINE
  5
E6
330
1F
100
AcDbEntity
  8
0
  6
Continuous
 62
     7
100
AcDbLine
 10
32.79511579998865
 20
119.9542195531324
 30
0.0
 11
32.77886579998864
 21
119.9054695531324
 31
0.0
  0
LINE
  5
E7
330
1F
100
AcDbEntity
  8
0
  6
Continuous
 62
     7
100
AcDbLine
 10
32.79511579998865
 20
120.0192195531324
 30
0.0
 11
32.79511579998865
 21
119.9542195531324
 31
0.0
  0
LINE
  5
E8
330
1F
100
AcDbEntity
  8
0
  6
Continuous
 62
     7
100
AcDbLine
 10
32.77886579998864
 20
120.0679695531324
 30
0.0
 11
32.79511579998865
 21
120.0192195531324
 31
0.0
  0
LINE
  5
E9
330
1F
100
AcDbEntity
  8
0
  6
Continuous
 62
     7
100
AcDbLine
 10
32.74636579998864
 20
120.1167195531324
 30
0.0
 11
32.77886579998864
 21
120.0679695531324
 31
0.0
  0
LINE
  5
EA
330
1F
100
AcDbEntity
  8
0
  6
Continuous
 62
     7
100
AcDbLine
 10
32.69761579998865
 20
120.1492195531324
 30
0.0
 11
32.74636579998864
 21
120.1167195531324
 31
0.0
  0
LINE
  5
EB
330
1F
100
AcDbEntity
  8
0
  6
Continuous
 62
     7
100
AcDbLine
 10
32.63261579998866
 20
120.1654695531324
 30
0.0
 11
32.69761579998865
 21
120.1492195531324
 31
0.0
  0
LINE
  5
EC
330
1F
100
AcDbEntity
  8
0
  6
Continuous
 62
     7
100
AcDbLine
 10
32.37261579998864
 20
120.2629695531324
 30
0.0
 11
32.30761579998864
 21
120.1979695531324
 31
0.0
  0
LINE
  5
ED
330
1F
100
AcDbEntity
  8
0
  6
Continuous
 62
     7
100
AcDbLine
 10
32.47011579998863
 20
120.3117195531324
 30
0.0
 11
32.37261579998864
 21
120.2629695531324
 31
0.0
  0
LINE
  5
EE
330
1F
100
AcDbEntity
  8
0
  6
Continuous
 62
     7
100
AcDbLine
 10
32.40511579998864
 20
119.9542195531324
 30
0.0
 11
32.40511579998864
 21
120.0192195531324
 31
0.0
  0
LINE
  5
EF
330
1F
100
AcDbEntity
  8
0
  6
Continuous
 62
     7
100
AcDbLine
 10
32.63261579998866
 20
119.8079695531324
 30
0.0
 11
32.56761579998866
 21
119.8079695531324
 31
0.0
  0
LINE
  5
F0
330
1F
100
AcDbEntity
  8
0
  6
Continuous
 62
     7
100
AcDbLine
 10
32.94136579998866
 20
119.6779695531324
 30
0.0
 11
32.86011579998865
 21
119.7429695531324
 31
0.0
  0
LINE
  5
F1
330
1F
100
AcDbEntity
  8
0
  6
Continuous
 62
     7
100
AcDbLine
 10
32.71386579998864
 20
119.6454695531324
 30
0.0
 11
32.77886579998864
 21
119.5967195531324
 31
0.0
  0
LINE
  5
F2
330
1F
100
AcDbEntity
  8
0
  6
Continuous
 62
     7
100
AcDbLine
 10
32.63261579998866
 20
119.6617195531324
 30
0.0
 11
32.71386579998864
 21
119.6454695531324
 31
0.0
  0
LINE
  5
F3
330
1F
100
AcDbEntity
  8
0
  6
Continuous
 62
     7
100
AcDbLine
 10
32.56761579998866
 20
119.6617195531324
 30
0.0
 11
32.63261579998866
 21
119.6617195531324
 31
0.0
  0
LINE
  5
F4
330
1F
100
AcDbEntity
  8
0
  6
Continuous
 62
     7
100
AcDbLine
 10
32.56761579998866
 20
119.8079695531324
 30
0.0
 11
32.56761579998866
 21
119.6617195531324
 31
0.0
  0
LINE
  5
F5
330
1F
100
AcDbEntity
  8
0
  6
Continuous
 62
     7
100
AcDbLine
 10
32.69761579998865
 20
119.8242195531324
 30
0.0
 11
32.63261579998866
 21
119.8079695531324
 31
0.0
  0
LINE
  5
F6
330
1F
100
AcDbEntity
  8
0
  6
Continuous
 62
     7
100
AcDbLine
 10
32.56761579998866
 20
120.1654695531324
 30
0.0
 11
32.63261579998866
 21
120.1654695531324
 31
0.0
  0
LINE
  5
F7
330
1F
100
AcDbEntity
  8
0
  6
Continuous
 62
     7
100
AcDbLine
 10
32.50261579998863
 20
120.1492195531324
 30
0.0
 11
32.56761579998866
 21
120.1654695531324
 31
0.0
  0
LINE
  5
F8
330
1F
100
AcDbEntity
  8
0
  6
Continuous
 62
     7
100
AcDbLine
 10
32.45386579998865
 20
120.1167195531324
 30
0.0
 11
32.50261579998863
 21
120.1492195531324
 31
0.0
  0
LINE
  5
F9
330
1F
100
AcDbEntity
  8
0
  6
Continuous
 62
     7
100
AcDbLine
 10
32.42136579998865
 20
120.0679695531324
 30
0.0
 11
32.45386579998865
 21
120.1167195531324
 31
0.0
  0
LINE
  5
FA
330
1F
100
AcDbEntity
  8
0
  6
Continuous
 62
     7
100
AcDbLine
 10
32.40511579998864
 20
120.0192195531324
 30
0.0
 11
32.42136579998865
 21
120.0679695531324
 31
0.0
  0
LINE
  5
FB
330
1F
100
AcDbEntity
  8
0
  6
Continuous
 62
     7
100
AcDbLine
 10
32.24261579998864
 20
120.1004695531324
 30
0.0
 11
32.22636579998866
 21
120.0192195531324
 31
0.0
  0
LINE
  5
FC
330
1F
100
AcDbEntity
  8
0
  6
Continuous
 62
     7
100
AcDbLine
 10
32.30761579998864
 20
120.1979695531324
 30
0.0
 11
32.24261579998864
 21
120.1004695531324
 31
0.0
  0
LINE
  5
FD
330
1F
100
AcDbEntity
  8
0
  6
Continuous
 62
     7
100
AcDbLine
 10
32.22636579998866
 20
120.0192195531324
 30
0.0
 11
32.22636579998866
 21
119.9542195531324
 31
0.0
  0
LINE
  5
FE
330
1F
100
AcDbEntity
  8
0
  6
Continuous
 62
     7
100
AcDbLine
 10
32.97386579998866
 20
119.9542195531324
 30
0.0
 11
32.97386579998866
 21
120.0192195531324
 31
0.0
  0
LINE
  5
FF
330
1F
100
AcDbEntity
  8
0
  6
Continuous
 62
     7
100
AcDbLine
 10
32.22636579998866
 20
119.9542195531324
 30
0.0
 11
32.40511579998864
 21
119.9542195531324
 31
0.0
  0
LINE
  5
100
330
1F
100
AcDbEntity
  8
0
  6
Continuous
 62
     7
100
AcDbLine
 10
33.00636579998866
 20
119.5804695531324
 30
0.0
 11
32.94136579998866
 21
119.6779695531324
 31
0.0
  0
LINE
  5
101
330
1F
100
AcDbEntity
  8
0
  6
Continuous
 62
     7
100
AcDbLine
 10
32.77886579998864
 20
119.5967195531324
 30
0.0
 11
32.82761579998865
 21
119.5317195531324
 31
0.0
  0
LINE
  5
102
330
1F
100
AcDbEntity
  8
0
  6
Continuous
 62
     7
100
AcDbLine
 10
32.95761579998865
 20
119.8729695531324
 30
0.0
 11
32.97386579998866
 21
119.9542195531324
 31
0.0
  0
LINE
  5
103
330
1F
100
AcDbEntity
  8
0
  6
Continuous
 62
     7
100
AcDbLine
 10
32.89261579998865
 20
119.7754695531324
 30
0.0
 11
32.95761579998865
 21
119.8729695531324
 31
0.0
  0
LINE
  5
104
330
1F
100
AcDbEntity
  8
0
  6
Continuous
 62
     7
100
AcDbLine
 10
32.84386579998864
 20
119.4667195531324
 30
0.0
 11
32.84386579998864
 21
119.4017195531324
 31
0.0
  0
LINE
  5
105
330
1F
100
AcDbEntity
  8
0
  6
Continuous
 62
     7
100
AcDbLine
 10
32.84386579998864
 20
119.4017195531324
 30
0.0
 11
32.82761579998865
 21
119.3367195531324
 31
0.0
  0
LINE
  5
106
330
1F
100
AcDbEntity
  8
0
  6
Continuous
 62
     7
100
AcDbLine
 10
32.37261579998864
 20
119.3367195531324
 30
0.0
 11
32.35636579998865
 21
119.4017195531324
 31
0.0
  0
LINE
  5
107
330
1F
100
AcDbEntity
  8
0
  6
Continuous
 62
     7
100
AcDbLine
 10
32.35636579998865
 20
119.4017195531324
 30
0.0
 11
32.35636579998865
 21
119.4667195531324
 31
0.0
  0
LINE
  5
108
330
1F
100
AcDbEntity
  8
0
  6
Continuous
 62
     7
100
AcDbLine
 10
32.35636579998865
 20
119.4667195531324
 30
0.0
 11
32.16136579998866
 21
119.4667195531324
 31
0.0
  0
LINE
  5
109
330
1F
100
AcDbEntity
  8
0
  6
Continuous
 62
     7
100
AcDbLine
 10
32.16136579998866
 20
119.4667195531324
 30
0.0
 11
32.16136579998866
 21
119.3854695531324
 31
0.0
  0
LINE
  5
10A
330
1F
100
AcDbEntity
  8
0
  6
Continuous
 62
     7
100
AcDbLine
 10
33.03886579998866
 20
119.3854695531324
 30
0.0
 11
33.03886579998866
 21
119.4667195531324
 31
0.0
  0
LINE
  5
10B
330
1F
100
AcDbEntity
  8
0
  6
Continuous
 62
     7
100
AcDbLine
 10
32.16136579998866
 20
119.3854695531324
 30
0.0
 11
32.19386579998866
 21
119.2717195531324
 31
0.0
  0
LINE
  5
10C
330
1F
100
AcDbEntity
  8
0
  6
Continuous
 62
     7
100
AcDbLine
 10
29.69306180127359
 20
116.0052092024461
 30
0.0
 11
29.69306180127359
 21
123.5635215976238
 31
0.0
  0
LINE
  5
10D
330
1F
100
AcDbEntity
  8
0
  6
Continuous
 62
     7
100
AcDbLine
 10
29.19306180127356
 20
123.5635215976238
 30
0.0
 11
29.19306180127354
 21
117.6635215976238
 31
0.0
  0
LINE
  5
10E
330
1F
100
AcDbEntity
  8
0
  6
Continuous
 62
     7
100
AcDbLine
 10
30.39306180127355
 20
123.5635215976238
 30
0.0
 11
30.19306180127356
 21
123.5635215976238
 31
0.0
  0
LINE
  5
10F
330
1F
100
AcDbEntity
  8
0
  6
Continuous
 62
     7
100
AcDbLine
 10
30.69306180127359
 20
123.5635215976238
 30
0.0
 11
30.39306180127355
 21
123.5635215976238
 31
0.0
  0
LINE
  5
110
330
1F
100
AcDbEntity
  8
0
  6
Continuous
 62
     7
100
AcDbLine
 10
30.19306180127356
 20
123.5635215976238
 30
0.0
 11
29.69306180127359
 21
123.5635215976238
 31
0.0
  0
LINE
  5
111
330
1F
100
AcDbEntity
  8
0
  6
Continuous
 62
     7
100
AcDbLine
 10
30.69306180127359
 20
123.5635215976238
 30
0.0
 11
30.69306180127359
 21
126.7635215976238
 31
0.0
  0
LINE
  5
112
330
1F
100
AcDbEntity
  8
0
  6
Continuous
 62
     7
100
AcDbLine
 10
29.19306180127356
 20
123.5635215976238
 30
0.0
 11
29.69306180127359
 21
123.5635215976238
 31
0.0
  0
LINE
  5
113
330
1F
100
AcDbEntity
  8
0
  6
Continuous
 62
     7
100
AcDbLine
 10
29.19306180127356
 20
123.5635215976238
 30
0.0
 11
29.19306180127354
 21
123.6635215976238
 31
0.0
  0
LINE
  5
114
330
1F
100
AcDbEntity
  8
0
  6
Continuous
 62
     7
100
AcDbLine
 10
30.19306180127356
 20
123.5635215976238
 30
0.0
 11
30.19306180127356
 21
123.6635215976238
 31
0.0
  0
LINE
  5
115
330
1F
100
AcDbEntity
  8
0
  6
Continuous
 62
     7
100
AcDbLine
 10
30.39306180127355
 20
123.6635215976238
 30
0.0
 11
30.39306180127355
 21
123.5635215976238
 31
0.0
  0
LINE
  5
116
330
1F
100
AcDbEntity
  8
0
  6
Continuous
 62
     7
100
AcDbLine
 10
29.19306180127354
 20
132.6635215976238
 30
0.0
 11
29.19306180127357
 21
126.7635215976238
 31
0.0
  0
LINE
  5
117
330
1F
100
AcDbEntity
  8
0
  6
Continuous
 62
     7
100
AcDbLine
 10
32.12278680886277
 20
129.9766480592881
 30
0.0
 11
31.94403680886279
 21
129.9766480592881
 31
0.0
  0
LINE
  5
118
330
1F
100
AcDbEntity
  8
0
  6
Continuous
 62
     7
100
AcDbLine
 10
31.84242376715977
 20
130.2744573993003
 30
0.0
 11
34.68085843333009
 21
131.7520529616524
 31
0.0
  0
LINE
  5
119
330
1F
100
AcDbEntity
  8
0
  6
Continuous
 62
     7
100
AcDbLine
 10
30.19306180127356
 20
126.6635215976238
 30
0.0
 11
30.19306180127356
 21
126.7635215976238
 31
0.0
  0
LINE
  5
11A
330
1F
100
AcDbEntity
  8
0
  6
Continuous
 62
     7
100
AcDbLine
 10
32.12278680886277
 20
129.1316480592881
 30
0.0
 11
32.12278680886277
 21
129.9766480592881
 31
0.0
  0
LINE
  5
11B
330
1F
100
AcDbEntity
  8
0
  6
Continuous
 62
     7
100
AcDbLine
 10
31.94403680886279
 20
129.6841480592881
 30
0.0
 11
31.94403680886279
 21
129.1316480592881
 31
0.0
  0
LINE
  5
11C
330
1F
100
AcDbEntity
  8
0
  6
Continuous
 62
     7
100
AcDbLine
 10
31.39153680886278
 20
129.1478980592881
 30
0.0
 11
31.39153680886278
 21
128.9691480592881
 31
0.0
  0
LINE
  5
11D
330
1F
100
AcDbEntity
  8
0
  6
Continuous
 62
     7
100
AcDbLine
 10
31.39153680886278
 20
128.9691480592881
 30
0.0
 11
31.94403680886279
 21
128.9691480592881
 31
0.0
  0
LINE
  5
11E
330
1F
100
AcDbEntity
  8
0
  6
Continuous
 62
     7
100
AcDbLine
 10
31.94403680886279
 20
128.9691480592881
 30
0.0
 11
31.94403680886279
 21
128.6766480592881
 31
0.0
  0
LINE
  5
11F
330
1F
100
AcDbEntity
  8
0
  6
Continuous
 62
     7
100
AcDbLine
 10
31.94403680886279
 20
128.6766480592881
 30
0.0
 11
32.12278680886277
 21
128.6766480592881
 31
0.0
  0
LINE
  5
120
330
1F
100
AcDbEntity
  8
0
  6
Continuous
 62
     7
100
AcDbLine
 10
32.12278680886277
 20
128.6766480592881
 30
0.0
 11
32.12278680886277
 21
128.9691480592881
 31
0.0
  0
LINE
  5
121
330
1F
100
AcDbEntity
  8
0
  6
Continuous
 62
     7
100
AcDbLine
 10
30.39306180127355
 20
126.7635215976238
 30
0.0
 11
30.39306180127355
 21
126.6635215976238
 31
0.0
  0
LINE
  5
122
330
1F
100
AcDbEntity
  8
0
  6
Continuous
 62
     7
100
AcDbLine
 10
29.69306180127359
 20
126.7635215976238
 30
0.0
 11
29.19306180127357
 21
126.7635215976238
 31
0.0
  0
LINE
  5
123
330
1F
100
AcDbEntity
  8
0
  6
Continuous
 62
     7
100
AcDbLine
 10
31.57028680886276
 20
129.1316480592881
 30
0.0
 11
31.94403680886279
 21
129.6841480592881
 31
0.0
  0
LINE
  5
124
330
1F
100
AcDbEntity
  8
0
  6
Continuous
 62
     7
100
AcDbLine
 10
31.94403680886279
 20
129.9766480592881
 30
0.0
 11
31.39153680886278
 21
129.1478980592881
 31
0.0
  0
LINE
  5
125
330
1F
100
AcDbEntity
  8
0
  6
Continuous
 62
     7
100
AcDbLine
 10
29.19306180127354
 20
126.6635215976238
 30
0.0
 11
29.19306180127354
 21
123.6635215976238
 31
0.0
  0
LINE
  5
126
330
1F
100
AcDbEntity
  8
0
  6
Continuous
 62
     7
100
AcDbLine
 10
37.971719733984
 20
135.6635215976238
 30
0.0
 11
34.89306180127358
 21
135.6635215976238
 31
0.0
  0
LINE
  5
127
330
1F
100
AcDbEntity
  8
0
  6
Continuous
 62
     7
100
AcDbLine
 10
32.19306180127353
 20
135.6635215976238
 30
0.0
 11
34.89306180127358
 21
135.6635215976238
 31
0.0
  0
LINE
  5
128
330
1F
100
AcDbEntity
  8
0
  6
Continuous
 62
     7
100
AcDbLine
 10
31.94403680886279
 20
129.1316480592881
 30
0.0
 11
31.57028680886276
 21
129.1316480592881
 31
0.0
  0
LINE
  5
129
330
1F
100
AcDbEntity
  8
0
  6
Continuous
 62
     7
100
AcDbLine
 10
30.39306180127355
 20
126.7635215976238
 30
0.0
 11
30.69306180127359
 21
126.7635215976238
 31
0.0
  0
LINE
  5
12A
330
1F
100
AcDbEntity
  8
0
  6
Continuous
 62
     7
100
AcDbLine
 10
30.19306180127356
 20
126.7635215976238
 30
0.0
 11
30.39306180127355
 21
126.7635215976238
 31
0.0
  0
LINE
  5
12B
330
1F
100
AcDbEntity
  8
0
  6
Continuous
 62
     7
100
AcDbLine
 10
32.28528680886276
 20
129.1316480592881
 30
0.0
 11
32.12278680886277
 21
129.1316480592881
 31
0.0
  0
LINE
  5
12C
330
1F
100
AcDbEntity
  8
0
  6
Continuous
 62
     7
100
AcDbLine
 10
32.12278680886277
 20
128.9691480592881
 30
0.0
 11
32.28528680886276
 21
128.9691480592881
 31
0.0
  0
LINE
  5
12D
330
1F
100
AcDbEntity
  8
0
  6
Continuous
 62
     7
100
AcDbLine
 10
32.28528680886276
 20
128.9691480592881
 30
0.0
 11
32.28528680886276
 21
129.1316480592881
 31
0.0
  0
LINE
  5
12E
330
1F
100
AcDbEntity
  8
0
  6
Continuous
 62
     7
100
AcDbLine
 10
29.19306180127354
 20
126.6635215976238
 30
0.0
 11
30.39306180127355
 21
126.6635215976238
 31
0.0
  0
LINE
  5
12F
330
1F
100
AcDbEntity
  8
0
  6
Continuous
 62
     7
100
AcDbLine
 10
29.69306180127359
 20
126.7635215976238
 30
0.0
 11
30.19306180127356
 21
126.7635215976238
 31
0.0
  0
LINE
  5
130
330
1F
100
AcDbEntity
  8
0
  6
Continuous
 62
     7
100
AcDbLine
 10
29.19306180127357
 20
126.7635215976238
 30
0.0
 11
29.19306180127354
 21
126.6635215976238
 31
0.0
  0
LINE
  5
131
330
1F
100
AcDbEntity
  8
0
  6
Continuous
 62
     7
100
AcDbLine
 10
29.69306180127359
 20
126.7635215976238
 30
0.0
 11
29.69306180127359
 21
134.3218339928015
 31
0.0
  0
LINE
  5
132
330
1F
100
AcDbEntity
  8
0
  6
Continuous
 62
     7
100
AcDbLine
 10
30.39306180127355
 20
123.6635215976238
 30
0.0
 11
30.39306180127355
 21
126.6635215976238
 31
0.0
  0
LINE
  5
133
330
1F
100
AcDbEntity
  8
0
  6
Continuous
 62
     7
100
AcDbLine
 10
29.19306180127354
 20
123.6635215976238
 30
0.0
 11
30.39306180127355
 21
123.6635215976238
 31
0.0
  0
LINE
  5
134
330
1F
100
AcDbEntity
  8
0
  6
Continuous
 62
     7
100
AcDbLine
 10
38.09306180127356
 20
135.5421795303342
 30
0.0
 11
37.49306180127357
 21
136.1421795303342
 31
0.0
  0
LINE
  5
135
330
1F
100
AcDbEntity
  8
0
  6
Continuous
 62
     7
100
AcDbLine
 10
37.49306180127357
 20
136.1421795303342
 30
0.0
 11
37.50731250183415
 21
136.1421795303342
 31
0.0
  0
LINE
  5
136
330
1F
100
AcDbEntity
  8
0
  6
Continuous
 62
     7
100
AcDbLine
 10
37.96553457753311
 20
136.1421795302856
 30
0.0
 11
38.05196927085351
 21
136.1421795303141
 31
0.0
  0
LINE
  5
137
330
1F
100
AcDbEntity
  8
0
  6
Continuous
 62
     7
100
AcDbLine
 10
36.89306180127358
 20
137.2135215976238
 30
0.0
 11
36.89306180127358
 21
136.8635215976238
 31
0.0
  0
LINE
  5
138
330
1F
100
AcDbEntity
  8
0
  6
Continuous
 62
     7
100
AcDbLine
 10
36.9144038685632
 20
136.8421795303342
 30
0.0
 11
36.89306180127358
 21
136.8635215976238
 31
0.0
  0
LINE
  5
139
330
1F
100
AcDbEntity
  8
0
  6
Continuous
 62
     7
100
AcDbLine
 10
38.09306180127356
 20
135.5421795303342
 30
0.0
 11
38.09306180127356
 21
133.8635215976238
 31
0.0
  0
LINE
  5
13A
330
1F
100
AcDbEntity
  8
0
  6
Continuous
 62
     7
100
AcDbLine
 10
33.1570880096545
 20
134.6791887111405
 30
0.0
 11
30.31865334348419
 21
133.2015931487884
 31
0.0
  0
LINE
  5
13B
330
1F
100
AcDbEntity
  8
0
  6
Continuous
 62
     7
100
AcDbLine
 10
30.31865334348419
 20
133.2015931487884
 30
0.0
 11
31.84242376715977
 21
130.2744573993003
 31
0.0
  0
LINE
  5
13C
330
1F
100
AcDbEntity
  8
0
  6
Continuous
 62
     7
100
AcDbLine
 10
37.45062729457243
 20
137.2135215976238
 30
0.0
 11
36.89306180127358
 21
137.2135215976238
 31
0.0
  0
LINE
  5
13D
330
1F
100
AcDbEntity
  8
0
  6
Continuous
 62
     7
100
AcDbLine
 10
33.09306180127356
 20
118.9635215976238
 30
0.0
 11
33.09306180127359
 21
115.6635215976238
 31
0.0
  0
LINE
  5
13E
330
1F
100
AcDbEntity
  8
0
  6
Continuous
 62
     7
100
AcDbLine
 10
36.09306180127362
 20
121.3635215976238
 30
0.0
 11
33.29306180127361
 21
121.3635215976238
 31
0.0
  0
LINE
  5
13F
330
1F
100
AcDbEntity
  8
0
  6
Continuous
 62
     7
100
AcDbLine
 10
36.09306180127362
 20
123.6635215976237
 30
0.0
 11
36.09306180127362
 21
121.3635215976238
 31
0.0
  0
LINE
  5
140
330
1F
100
AcDbEntity
  8
0
  6
Continuous
 62
     7
100
AcDbLine
 10
33.29306180127361
 20
123.6635215976237
 30
0.0
 11
36.09306180127362
 21
123.6635215976237
 31
0.0
  0
LINE
  5
141
330
1F
100
AcDbEntity
  8
0
  6
Continuous
 62
     7
100
AcDbLine
 10
33.29306180127361
 20
123.6635215976237
 30
0.0
 11
33.29306180127361
 21
121.3635215976238
 31
0.0
  0
LINE
  5
142
330
1F
100
AcDbEntity
  8
0
  6
Continuous
 62
     7
100
AcDbLine
 10
33.1280226055614
 20
128.2379811223205
 30
0.0
 11
35.61165293845679
 21
129.5308772393757
 31
0.0
  0
LINE
  5
143
330
1F
100
AcDbEntity
  8
0
  6
Continuous
 62
     7
100
AcDbLine
 10
33.1280226055614
 20
128.2379811223205
 30
0.0
 11
34.19004441601604
 21
126.1978562060189
 31
0.0
  0
LINE
  5
144
330
1F
100
AcDbEntity
  8
0
  6
Continuous
 62
     7
100
AcDbLine
 10
34.19004441601604
 20
126.1978562060189
 30
0.0
 11
36.67367474889912
 21
127.4907523230677
 31
0.0
  0
LINE
  5
145
330
1F
100
AcDbEntity
  8
0
  6
Continuous
 62
     7
100
AcDbLine
 10
36.67367474889912
 20
127.4907523230677
 30
0.0
 11
35.61165293845679
 21
129.5308772393757
 31
0.0
  0
LINE
  5
146
330
1F
100
AcDbEntity
  8
0
  6
Continuous
 62
     7
100
AcDbLine
 10
33.09306180127359
 20
115.6635215976238
 30
0.0
 11
36.29306180127355
 21
115.6635215976238
 31
0.0
  0
LINE
  5
147
330
1F
100
AcDbEntity
  8
0
  6
Continuous
 62
     7
100
AcDbLine
 10
39.69306180127356
 20
129.9847921415243
 30
0.0
 11
37.42062427698537
 21
131.2958137901521
 31
0.0
  0
LINE
  5
148
330
1F
100
AcDbEntity
  8
0
  6
Continuous
 62
     7
100
AcDbLine
 10
38.29306180127568
 20
119.4635215976239
 30
0.0
 11
38.29306180127387
 21
117.1635215976248
 31
0.0
  0
LINE
  5
149
330
1F
100
AcDbEntity
  8
0
  6
Continuous
 62
     7
100
AcDbLine
 10
37.42062427698537
 20
131.3737704928965
 30
0.0
 11
39.69306180127356
 21
132.6847921415243
 31
0.0
  0
LINE
  5
14A
330
1F
100
AcDbEntity
  8
0
  6
Continuous
 62
     7
100
AcDbLine
 10
39.69306180127356
 20
132.8579651917528
 30
0.0
 11
37.34566590896193
 21
131.5036983308038
 31
0.0
  0
LINE
  5
14B
330
1F
100
AcDbEntity
  8
0
  6
Continuous
 62
     7
100
AcDbLine
 10
38.08593190110696
 20
120.9581685783867
 30
0.0
 11
37.50008069254662
 21
120.9581685783867
 31
0.0
  0
LINE
  5
14C
330
1F
100
AcDbEntity
  8
0
  6
Continuous
 62
     7
100
AcDbLine
 10
37.50008069254662
 20
120.9581685783867
 30
0.0
 11
37.50008069254662
 21
120.8734965783867
 31
0.0
  0
LINE
  5
14D
330
1F
100
AcDbEntity
  8
0
  6
Continuous
 62
     7
100
AcDbLine
 10
38.08593190110696
 20
120.8734965783867
 30
0.0
 11
38.08593190110696
 21
120.9581685783867
 31
0.0
  0
LINE
  5
14E
330
1F
100
AcDbEntity
  8
0
  6
Continuous
 62
     7
100
AcDbLine
 10
37.50008069254662
 20
120.8734965783867
 30
0.0
 11
38.08593190110696
 21
120.8734965783867
 31
0.0
  0
LINE
  5
14F
330
1F
100
AcDbEntity
  8
0
  6
Continuous
 62
     7
100
AcDbLine
 10
37.92681181976963
 20
120.674596476715
 30
0.0
 11
37.92681181976963
 21
120.759268476715
 31
0.0
  0
LINE
  5
150
330
1F
100
AcDbEntity
  8
0
  6
Continuous
 62
     7
100
AcDbLine
 10
37.65920077388401
 20
120.759268476715
 30
0.0
 11
37.65920077388401
 21
120.674596476715
 31
0.0
  0
LINE
  5
151
330
1F
100
AcDbEntity
  8
0
  6
Continuous
 62
     7
100
AcDbLine
 10
37.65920077388401
 20
120.674596476715
 30
0.0
 11
37.92681181976963
 21
120.674596476715
 31
0.0
  0
LINE
  5
152
330
1F
100
AcDbEntity
  8
0
  6
Continuous
 62
     7
100
AcDbLine
 10
37.92681181976963
 20
120.759268476715
 30
0.0
 11
37.65920077388401
 21
120.759268476715
 31
0.0
  0
LINE
  5
153
330
1F
100
AcDbEntity
  8
0
  6
Continuous
 62
     7
100
AcDbLine
 10
37.34096061120931
 20
121.0723966800584
 30
0.0
 11
38.24505198244432
 21
121.0723966800584
 31
0.0
  0
LINE
  5
154
330
1F
100
AcDbEntity
  8
0
  6
Continuous
 62
     7
100
AcDbLine
 10
38.24505198244432
 20
121.0723966800584
 30
0.0
 11
38.24505198244432
 21
121.1570686800584
 31
0.0
  0
LINE
  5
155
330
1F
100
AcDbEntity
  8
0
  6
Continuous
 62
     7
100
AcDbLine
 10
38.24505198244432
 20
121.1570686800584
 30
0.0
 11
37.83649003302884
 21
121.1570686800584
 31
0.0
  0
LINE
  5
156
330
1F
100
AcDbEntity
  8
0
  6
Continuous
 62
     7
100
AcDbLine
 10
37.83649003302884
 20
121.1570686800584
 30
0.0
 11
37.83649003302884
 21
121.5385078883369
 31
0.0
  0
LINE
  5
157
330
1F
100
AcDbEntity
  8
0
  6
Continuous
 62
     7
100
AcDbLine
 10
37.83649003302884
 20
121.5385078883369
 30
0.0
 11
37.75181803302883
 21
121.5385078883369
 31
0.0
  0
LINE
  5
158
330
1F
100
AcDbEntity
  8
0
  6
Continuous
 62
     7
100
AcDbLine
 10
37.75181803302883
 20
121.5385078883369
 30
0.0
 11
37.75181803302883
 21
121.1570686800584
 31
0.0
  0
LINE
  5
159
330
1F
100
AcDbEntity
  8
0
  6
Continuous
 62
     7
100
AcDbLine
 10
37.75181803302883
 20
121.1570686800584
 30
0.0
 11
37.34096061120931
 21
121.1570686800584
 31
0.0
  0
LINE
  5
15A
330
1F
100
AcDbEntity
  8
0
  6
Continuous
 62
     7
100
AcDbLine
 10
37.34096061120931
 20
121.1570686800584
 30
0.0
 11
37.34096061120931
 21
121.0723966800584
 31
0.0
  0
LINE
  5
15B
330
1F
100
AcDbEntity
  8
0
  6
Continuous
 62
     7
100
AcDbLine
 10
38.09306180127356
 20
133.8635215976238
 30
0.0
 11
36.69306180127353
 21
133.8635215976238
 31
0.0
  0
LINE
  5
15C
330
1F
100
AcDbEntity
  8
0
  6
Continuous
 62
     7
100
AcDbLine
 10
38.09306180127356
 20
125.2635215976239
 30
0.0
 11
38.09306180127354
 21
121.8635215976239
 31
0.0
  0
LINE
  5
15D
330
1F
100
AcDbEntity
  8
0
  6
Continuous
 62
     7
100
AcDbLine
 10
36.29306180127355
 20
115.6635215976238
 30
0.0
 11
36.29306180127355
 21
118.9635215976238
 31
0.0
  0
LINE
  5
15E
330
1F
100
AcDbEntity
  8
0
  6
Continuous
 62
     7
100
AcDbLine
 10
37.45062729457243
 20
137.2135215976238
 30
0.0
 11
37.45062729457243
 21
137.0351346473046
 31
0.0
  0
LINE
  5
15F
330
1F
100
AcDbEntity
  8
0
  6
Continuous
 62
     7
100
AcDbLine
 10
37.34566590896191
 20
131.1658859522449
 30
0.0
 11
39.69306180127356
 21
129.8116190912958
 31
0.0
  0
LINE
  5
160
330
1F
100
AcDbEntity
  8
0
  6
Continuous
 62
     7
100
AcDbLine
 10
34.89306180127358
 20
135.6635215976238
 30
0.0
 11
36.69306180127353
 21
133.8635215976238
 31
0.0
  0
LINE
  5
161
330
1F
100
AcDbEntity
  8
0
  6
Continuous
 62
     7
100
AcDbLine
 10
34.68085843333009
 20
131.7520529616524
 30
0.0
 11
33.1570880096545
 21
134.6791887111405
 31
0.0
  0
LINE
  5
162
330
1F
100
AcDbEntity
  8
0
  6
Continuous
 62
     7
100
AcDbLine
 10
38.05196927085351
 20
136.1421795303141
 30
0.0
 11
38.31774385425655
 21
136.1421795303342
 31
0.0
  0
LINE
  5
163
330
1F
100
AcDbEntity
  8
0
  6
Continuous
 62
     7
100
AcDbLine
 10
39.43131030357338
 20
136.8421795303342
 30
0.0
 11
39.43131030358219
 21
136.1421795302957
 31
0.0
  0
LINE
  5
164
330
1F
100
AcDbEntity
  8
0
  6
Continuous
 62
     7
100
AcDbLine
 10
38.01631271952164
 20
137.0351346473046
 30
0.0
 11
37.45062729457243
 21
137.0351346473046
 31
0.0
  0
LINE
  5
165
330
1F
100
AcDbEntity
  8
0
  6
Continuous
 62
     7
100
AcDbLine
 10
41.09306180127115
 20
119.463521597623
 30
0.0
 11
41.09306180127356
 21
117.1635215976239
 31
0.0
  0
LINE
  5
166
330
1F
100
AcDbEntity
  8
0
  6
Continuous
 62
     7
100
AcDbLine
 10
46.29306180127352
 20
115.6635215976238
 30
0.0
 11
46.29306180127352
 21
118.9635215976234
 31
0.0
  0
LINE
  5
167
330
1F
100
AcDbEntity
  8
0
  6
Continuous
 62
     7
100
AcDbLine
 10
43.09306180127356
 20
118.9635215976234
 30
0.0
 11
43.09306180127356
 21
115.6635215976238
 31
0.0
  0
LINE
  5
168
330
1F
100
AcDbEntity
  8
0
  6
Continuous
 62
     7
100
AcDbLine
 10
43.09306180127356
 20
115.6635215976238
 30
0.0
 11
46.29306180127352
 21
115.6635215976238
 31
0.0
  0
LINE
  5
169
330
1F
100
AcDbEntity
  8
0
  6
Continuous
 62
     7
100
AcDbLine
 10
46.29306180127352
 20
118.9635215976234
 30
0.0
 11
43.09306180127356
 21
118.9635215976234
 31
0.0
  0
LINE
  5
16A
330
1F
100
AcDbEntity
  8
0
  6
Continuous
 62
     7
100
AcDbLine
 10
46.38203457183829
 20
119.0546213224123
 30
0.0
 11
47.2432845718383
 21
119.0546213224123
 31
0.0
  0
LINE
  5
16B
330
1F
100
AcDbEntity
  8
0
  6
Continuous
 62
     7
100
AcDbLine
 10
46.38203457183829
 20
119.1521213224123
 30
0.0
 11
46.38203457183829
 21
119.0546213224123
 31
0.0
  0
LINE
  5
16C
330
1F
100
AcDbEntity
  8
0
  6
Continuous
 62
     7
100
AcDbLine
 10
47.2432845718383
 20
119.0546213224123
 30
0.0
 11
47.2432845718383
 21
119.2171213224123
 31
0.0
  0
LINE
  5
16D
330
1F
100
AcDbEntity
  8
0
  6
Continuous
 62
     7
100
AcDbLine
 10
47.2432845718383
 20
119.2171213224123
 30
0.0
 11
46.60953457183831
 21
119.2171213224123
 31
0.0
  0
LINE
  5
16E
330
1F
100
AcDbEntity
  8
0
  6
Continuous
 62
     7
100
AcDbLine
 10
44.49306180127354
 20
135.6635215976238
 30
0.0
 11
47.19306180127356
 21
135.6635215976238
 31
0.0
  0
LINE
  5
16F
330
1F
100
AcDbEntity
  8
0
  6
Continuous
 62
     7
100
AcDbLine
 10
47.19453457183829
 20
120.0458713224123
 30
0.0
 11
47.1782845718383
 21
120.1271213224123
 31
0.0
  0
LINE
  5
170
330
1F
100
AcDbEntity
  8
0
  6
Continuous
 62
     7
100
AcDbLine
 10
47.17828457183828
 20
119.8996213224123
 30
0.0
 11
47.19453457183829
 21
119.9808713224123
 31
0.0
  0
LINE
  5
171
330
1F
100
AcDbEntity
  8
0
  6
Continuous
 62
     7
100
AcDbLine
 10
47.19453457183829
 20
119.9808713224123
 30
0.0
 11
47.19453457183829
 21
120.0458713224123
 31
0.0
  0
LINE
  5
172
330
1F
100
AcDbEntity
  8
0
  6
Continuous
 62
     7
100
AcDbLine
 10
47.1782845718383
 20
120.1271213224123
 30
0.0
 11
47.11328457183831
 21
120.2246213224123
 31
0.0
  0
LINE
  5
173
330
1F
100
AcDbEntity
  8
0
  6
Continuous
 62
     7
100
AcDbLine
 10
47.11328457183831
 20
119.8021213224123
 30
0.0
 11
47.17828457183828
 21
119.8996213224123
 31
0.0
  0
LINE
  5
174
330
1F
100
AcDbEntity
  8
0
  6
Continuous
 62
     7
100
AcDbLine
 10
47.08078457183831
 20
119.7696213224124
 30
0.0
 11
47.11328457183831
 21
119.8021213224123
 31
0.0
  0
LINE
  5
175
330
1F
100
AcDbEntity
  8
0
  6
Continuous
 62
     7
100
AcDbLine
 10
47.11328457183831
 20
120.2246213224123
 30
0.0
 11
47.04828457183831
 21
120.2896213224123
 31
0.0
  0
LINE
  5
176
330
1F
100
AcDbEntity
  8
0
  6
Continuous
 62
     7
100
AcDbLine
 10
47.04828457183831
 20
120.2896213224123
 30
0.0
 11
46.95078457183828
 21
120.3383713224123
 31
0.0
  0
LINE
  5
177
330
1F
100
AcDbEntity
  8
0
  6
Continuous
 62
     7
100
AcDbLine
 10
46.9670345718383
 20
120.1433713224123
 30
0.0
 11
46.9995345718383
 21
120.0946213224123
 31
0.0
  0
LINE
  5
178
330
1F
100
AcDbEntity
  8
0
  6
Continuous
 62
     7
100
AcDbLine
 10
46.9995345718383
 20
120.0946213224123
 30
0.0
 11
47.01578457183831
 21
120.0458713224123
 31
0.0
  0
LINE
  5
179
330
1F
100
AcDbEntity
  8
0
  6
Continuous
 62
     7
100
AcDbLine
 10
47.01578457183831
 20
119.9808713224123
 30
0.0
 11
46.9995345718383
 21
119.9321213224123
 31
0.0
  0
LINE
  5
17A
330
1F
100
AcDbEntity
  8
0
  6
Continuous
 62
     7
100
AcDbLine
 10
47.01578457183831
 20
120.0458713224123
 30
0.0
 11
47.01578457183831
 21
119.9808713224123
 31
0.0
  0
LINE
  5
17B
330
1F
100
AcDbEntity
  8
0
  6
Continuous
 62
     7
100
AcDbLine
 10
46.91828457183829
 20
120.1758713224123
 30
0.0
 11
46.9670345718383
 21
120.1433713224123
 31
0.0
  0
LINE
  5
17C
330
1F
100
AcDbEntity
  8
0
  6
Continuous
 62
     7
100
AcDbLine
 10
46.9995345718383
 20
119.9321213224123
 30
0.0
 11
46.9670345718383
 21
119.8833713224123
 31
0.0
  0
LINE
  5
17D
330
1F
100
AcDbEntity
  8
0
  6
Continuous
 62
     7
100
AcDbLine
 10
46.95078457183828
 20
120.3383713224123
 30
0.0
 11
46.8695345718383
 21
120.3546213224123
 31
0.0
  0
LINE
  5
17E
330
1F
100
AcDbEntity
  8
0
  6
Continuous
 62
     7
100
AcDbLine
 10
46.8695345718383
 20
120.3546213224123
 30
0.0
 11
46.7720345718383
 21
120.3546213224123
 31
0.0
  0
LINE
  5
17F
330
1F
100
AcDbEntity
  8
0
  6
Continuous
 62
     7
100
AcDbLine
 10
46.7720345718383
 20
120.3546213224123
 30
0.0
 11
46.69078457183829
 21
120.3383713224123
 31
0.0
  0
LINE
  5
180
330
1F
100
AcDbEntity
  8
0
  6
Continuous
 62
     7
100
AcDbLine
 10
46.72328457183829
 20
120.1758713224123
 30
0.0
 11
46.78828457183832
 21
120.1921213224123
 31
0.0
  0
LINE
  5
181
330
1F
100
AcDbEntity
  8
0
  6
Continuous
 62
     7
100
AcDbLine
 10
46.78828457183832
 20
120.1921213224123
 30
0.0
 11
46.85328457183832
 21
120.1921213224123
 31
0.0
  0
LINE
  5
182
330
1F
100
AcDbEntity
  8
0
  6
Continuous
 62
     7
100
AcDbLine
 10
46.85328457183832
 20
120.1921213224123
 30
0.0
 11
46.91828457183829
 21
120.1758713224123
 31
0.0
  0
LINE
  5
183
330
1F
100
AcDbEntity
  8
0
  6
Continuous
 62
     7
100
AcDbLine
 10
46.67453457183828
 20
120.1433713224123
 30
0.0
 11
46.72328457183829
 21
120.1758713224123
 31
0.0
  0
LINE
  5
184
330
1F
100
AcDbEntity
  8
0
  6
Continuous
 62
     7
100
AcDbLine
 10
46.64203457183831
 20
120.0946213224123
 30
0.0
 11
46.67453457183828
 21
120.1433713224123
 31
0.0
  0
LINE
  5
185
330
1F
100
AcDbEntity
  8
0
  6
Continuous
 62
     7
100
AcDbLine
 10
46.60953457183831
 20
119.2171213224123
 30
0.0
 11
46.64203457183831
 21
119.3146213224123
 31
0.0
  0
LINE
  5
186
330
1F
100
AcDbEntity
  8
0
  6
Continuous
 62
     7
100
AcDbLine
 10
46.5932845718383
 20
120.2896213224123
 30
0.0
 11
46.5282845718383
 21
120.2246213224123
 31
0.0
  0
LINE
  5
187
330
1F
100
AcDbEntity
  8
0
  6
Continuous
 62
     7
100
AcDbLine
 10
46.44703457183829
 20
119.9808713224123
 30
0.0
 11
46.6257845718383
 21
119.9808713224123
 31
0.0
  0
LINE
  5
188
330
1F
100
AcDbEntity
  8
0
  6
Continuous
 62
     7
100
AcDbLine
 10
46.6257845718383
 20
119.9808713224123
 30
0.0
 11
46.6257845718383
 21
120.0458713224123
 31
0.0
  0
LINE
  5
189
330
1F
100
AcDbEntity
  8
0
  6
Continuous
 62
     7
100
AcDbLine
 10
46.6257845718383
 20
120.0458713224123
 30
0.0
 11
46.64203457183831
 21
120.0946213224123
 31
0.0
  0
LINE
  5
18A
330
1F
100
AcDbEntity
  8
0
  6
Continuous
 62
     7
100
AcDbLine
 10
46.4632845718383
 20
120.1271213224123
 30
0.0
 11
46.44703457183829
 21
120.0458713224123
 31
0.0
  0
LINE
  5
18B
330
1F
100
AcDbEntity
  8
0
  6
Continuous
 62
     7
100
AcDbLine
 10
46.44703457183829
 20
120.0458713224123
 30
0.0
 11
46.44703457183829
 21
119.9808713224123
 31
0.0
  0
LINE
  5
18C
330
1F
100
AcDbEntity
  8
0
  6
Continuous
 62
     7
100
AcDbLine
 10
46.09306180127356
 20
123.6635215976237
 30
0.0
 11
46.09306180127356
 21
121.3635215976238
 31
0.0
  0
LINE
  5
18D
330
1F
100
AcDbEntity
  8
0
  6
Continuous
 62
     7
100
AcDbLine
 10
46.09306180127356
 20
123.6635215976237
 30
0.0
 11
43.29306180127355
 21
123.6635215976237
 31
0.0
  0
LINE
  5
18E
330
1F
100
AcDbEntity
  8
0
  6
Continuous
 62
     7
100
AcDbLine
 10
43.29306180127355
 20
123.6635215976237
 30
0.0
 11
43.29306180127355
 21
121.3635215976238
 31
0.0
  0
LINE
  5
18F
330
1F
100
AcDbEntity
  8
0
  6
Continuous
 62
     7
100
AcDbLine
 10
46.09306180127356
 20
121.3635215976238
 30
0.0
 11
43.29306180127355
 21
121.3635215976238
 31
0.0
  0
LINE
  5
190
330
1F
100
AcDbEntity
  8
0
  6
Continuous
 62
     7
100
AcDbLine
 10
42.69306180127359
 20
133.8635215976238
 30
0.0
 11
41.29306180127355
 21
133.8635215976238
 31
0.0
  0
LINE
  5
191
330
1F
100
AcDbEntity
  8
0
  6
Continuous
 62
     7
100
AcDbLine
 10
41.55286819016294
 20
136.8421795303342
 30
0.0
 11
39.93131030357338
 21
136.8421795303342
 31
0.0
  0
LINE
  5
192
330
1F
100
AcDbEntity
  8
0
  6
Continuous
 62
     7
100
AcDbLine
 10
39.93131030356386
 20
136.1421795302963
 30
0.0
 11
39.93131030357338
 21
136.8421795303342
 31
0.0
  0
LINE
  5
193
330
1F
100
AcDbEntity
  8
0
  6
Continuous
 62
     7
100
AcDbLine
 10
41.90743843059565
 20
136.8421795303342
 30
0.0
 11
41.82132393564913
 21
136.8421795303342
 31
0.0
  0
LINE
  5
194
330
1F
100
AcDbEntity
  8
0
  6
Continuous
 62
     7
100
AcDbLine
 10
41.32382653147312
 20
136.1421795303342
 30
0.0
 11
41.41018164118367
 21
136.1421795303342
 31
0.0
  0
LINE
  5
195
330
1F
100
AcDbEntity
  8
0
  6
Continuous
 62
     7
100
AcDbLine
 10
41.0552841367365
 20
136.1421795302856
 30
0.0
 11
41.32382653147312
 21
136.1421795303342
 31
0.0
  0
LINE
  5
196
330
1F
100
AcDbEntity
  8
0
  6
Continuous
 62
     7
100
AcDbLine
 10
41.87881110071299
 20
136.1421795303342
 30
0.0
 11
41.89306180127358
 21
136.1421795303342
 31
0.0
  0
LINE
  5
197
330
1F
100
AcDbEntity
  8
0
  6
Continuous
 62
     7
100
AcDbLine
 10
39.69306180127359
 20
136.8635215976238
 30
0.0
 11
42.4930618012736
 21
136.8635215976238
 31
0.0
  0
LINE
  5
198
330
1F
100
AcDbEntity
  8
0
  6
Continuous
 62
     7
100
AcDbLine
 10
42.471719733984
 20
136.8421795303342
 30
0.0
 11
42.4930618012736
 21
136.8635215976238
 31
0.0
  0
LINE
  5
199
330
1F
100
AcDbEntity
  8
0
  6
Continuous
 62
     7
100
AcDbLine
 10
44.49306180127354
 20
135.6635215976238
 30
0.0
 11
41.41440386856317
 21
135.6635215976238
 31
0.0
  0
LINE
  5
19A
330
1F
100
AcDbEntity
  8
0
  6
Continuous
 62
     7
100
AcDbLine
 10
46.41453457183829
 20
119.2658713224123
 30
0.0
 11
46.38203457183829
 21
119.1521213224123
 31
0.0
  0
LINE
  5
19B
330
1F
100
AcDbEntity
  8
0
  6
Continuous
 62
     7
100
AcDbLine
 10
46.47953457183829
 20
119.3796213224123
 30
0.0
 11
46.41453457183829
 21
119.2658713224123
 31
0.0
  0
LINE
  5
19C
330
1F
100
AcDbEntity
  8
0
  6
Continuous
 62
     7
100
AcDbLine
 10
46.5607845718383
 20
119.4771213224123
 30
0.0
 11
46.47953457183829
 21
119.3796213224123
 31
0.0
  0
LINE
  5
19D
330
1F
100
AcDbEntity
  8
0
  6
Continuous
 62
     7
100
AcDbLine
 10
46.65828457183829
 20
119.5908713224123
 30
0.0
 11
46.5607845718383
 21
119.4771213224123
 31
0.0
  0
LINE
  5
19E
330
1F
100
AcDbEntity
  8
0
  6
Continuous
 62
     7
100
AcDbLine
 10
46.75578457183829
 20
119.6721213224123
 30
0.0
 11
46.65828457183829
 21
119.5908713224123
 31
0.0
  0
LINE
  5
19F
330
1F
100
AcDbEntity
  8
0
  6
Continuous
 62
     7
100
AcDbLine
 10
46.9670345718383
 20
119.8833713224123
 30
0.0
 11
46.75578457183829
 21
119.6721213224123
 31
0.0
  0
LINE
  5
1A0
330
1F
100
AcDbEntity
  8
0
  6
Continuous
 62
     7
100
AcDbLine
 10
46.69078457183829
 20
120.3383713224123
 30
0.0
 11
46.5932845718383
 21
120.2896213224123
 31
0.0
  0
LINE
  5
1A1
330
1F
100
AcDbEntity
  8
0
  6
Continuous
 62
     7
100
AcDbLine
 10
46.5282845718383
 20
120.2246213224123
 30
0.0
 11
46.4632845718383
 21
120.1271213224123
 31
0.0
  0
LINE
  5
1A2
330
1F
100
AcDbEntity
  8
0
  6
Continuous
 62
     7
100
AcDbLine
 10
46.64203457183831
 20
119.3146213224123
 30
0.0
 11
46.72328457183829
 21
119.4283713224123
 31
0.0
  0
LINE
  5
1A3
330
1F
100
AcDbEntity
  8
0
  6
Continuous
 62
     7
100
AcDbLine
 10
46.8370345718383
 20
119.5583713224123
 30
0.0
 11
46.95078457183831
 21
119.6558713224123
 31
0.0
  0
LINE
  5
1A4
330
1F
100
AcDbEntity
  8
0
  6
Continuous
 62
     7
100
AcDbLine
 10
46.72328457183829
 20
119.4283713224123
 30
0.0
 11
46.8370345718383
 21
119.5583713224123
 31
0.0
  0
LINE
  5
1A5
330
1F
100
AcDbEntity
  8
0
  6
Continuous
 62
     7
100
AcDbLine
 10
46.95078457183831
 20
119.6558713224123
 30
0.0
 11
47.08078457183831
 21
119.7696213224124
 31
0.0
  0
LINE
  5
1A6
330
1F
100
AcDbEntity
  8
0
  6
Continuous
 62
     7
100
AcDbLine
 10
42.69306180127359
 20
133.8635215976238
 30
0.0
 11
44.49306180127354
 21
135.6635215976238
 31
0.0
  0
LINE
  5
1A7
330
1F
100
AcDbEntity
  8
0
  6
Continuous
 62
     7
100
AcDbLine
 10
38.70306180127363
 20
130.8884094059714
 30
0.0
 11
38.70306180127363
 21
131.7811748770772
 31
0.0
  0
LINE
  5
1A8
330
1F
100
AcDbEntity
  8
0
  6
Continuous
 62
     7
100
AcDbLine
 10
38.52306180127363
 20
131.7811748770772
 30
0.0
 11
38.52306180127363
 21
130.8884094059714
 31
0.0
  0
LINE
  5
1A9
330
1F
100
AcDbEntity
  8
0
  6
Continuous
 62
     7
100
AcDbLine
 10
39.24306180127354
 20
132.2072208157737
 30
0.0
 11
39.24306180127357
 21
130.8886401111352
 31
0.0
  0
LINE
  5
1AA
330
1F
100
AcDbEntity
  8
0
  6
Continuous
 62
     7
100
AcDbLine
 10
39.69306180127356
 20
131.6947921415243
 30
0.0
 11
39.37655889585193
 21
132.2429912544578
 31
0.0
  0
LINE
  5
1AB
330
1F
100
AcDbEntity
  8
0
  6
Continuous
 62
     7
100
AcDbLine
 10
39.42306180127358
 20
130.8886401111352
 30
0.0
 11
39.42306180127355
 21
131.802445859568
 31
0.0
  0
LINE
  5
1AC
330
1F
100
AcDbEntity
  8
0
  6
Continuous
 62
     7
100
AcDbLine
 10
39.96306180127357
 20
131.802445859568
 30
0.0
 11
39.96306180127357
 21
130.4730247905868
 31
0.0
  0
LINE
  5
1AD
330
1F
100
AcDbEntity
  8
0
  6
Continuous
 62
     7
100
AcDbLine
 10
39.06306180127356
 20
130.7326978514931
 30
0.0
 11
39.06306180127356
 21
131.9888671847695
 31
0.0
  0
LINE
  5
1AE
330
1F
100
AcDbEntity
  8
0
  6
Continuous
 62
     7
100
AcDbLine
 10
39.42306180127355
 20
131.802445859568
 30
0.0
 11
39.65409065810326
 21
131.4022921415243
 31
0.0
  0
LINE
  5
1AF
330
1F
100
AcDbEntity
  8
0
  6
Continuous
 62
     7
100
AcDbLine
 10
40.14306180127355
 20
130.4730247905868
 30
0.0
 11
40.14306180127355
 21
132.2072208157737
 31
0.0
  0
LINE
  5
1B0
330
1F
100
AcDbEntity
  8
0
  6
Continuous
 62
     7
100
AcDbLine
 10
38.88306180127356
 20
131.9888671847695
 30
0.0
 11
38.88306180127356
 21
130.7326978514931
 31
0.0
  0
LINE
  5
1B1
330
1F
100
AcDbEntity
  8
0
  6
Continuous
 62
     7
100
AcDbLine
 10
40.32306180127358
 20
131.9888671847695
 30
0.0
 11
40.32306180127358
 21
130.6807170982791
 31
0.0
  0
LINE
  5
1B2
330
1F
100
AcDbEntity
  8
0
  6
Continuous
 62
     7
100
AcDbLine
 10
39.64803682208768
 20
130.395212262562
 30
0.0
 11
39.06306180127356
 21
130.7326978514931
 31
0.0
  0
LINE
  5
1B3
330
1F
100
AcDbEntity
  8
0
  6
Continuous
 62
     7
100
AcDbLine
 10
38.97311175964546
 20
130.5767844460044
 30
0.0
 11
39.55808678045952
 21
130.2392988570732
 31
0.0
  0
LINE
  5
1B4
330
1F
100
AcDbEntity
  8
0
  6
Continuous
 62
     7
100
AcDbLine
 10
40.7730618012736
 20
131.4247921415243
 30
0.0
 11
40.50306180127359
 21
131.4247921415243
 31
0.0
  0
LINE
  5
1B5
330
1F
100
AcDbEntity
  8
0
  6
Continuous
 62
     7
100
AcDbLine
 10
40.50306180127359
 20
131.4247921415243
 30
0.0
 11
40.50306180127362
 21
131.8330402777093
 31
0.0
  0
LINE
  5
1B6
330
1F
100
AcDbEntity
  8
0
  6
Continuous
 62
     7
100
AcDbLine
 10
39.73203294444383
 20
131.4022921415243
 30
0.0
 11
39.96306180127357
 21
131.802445859568
 31
0.0
  0
LINE
  5
1B7
330
1F
100
AcDbEntity
  8
0
  6
Continuous
 62
     7
100
AcDbLine
 10
40.50306180127362
 20
131.8330402777093
 30
0.0
 11
40.72808678045962
 21
131.7032181743328
 31
0.0
  0
LINE
  5
1B8
330
1F
100
AcDbEntity
  8
0
  6
Continuous
 62
     7
100
AcDbLine
 10
40.81803682208764
 20
131.8591315798216
 30
0.0
 11
40.45803682208762
 21
132.0668238875139
 31
0.0
  0
LINE
  5
1B9
330
1F
100
AcDbEntity
  8
0
  6
Continuous
 62
     7
100
AcDbLine
 10
40.0095647066953
 20
132.2429912544578
 30
0.0
 11
39.69306180127356
 21
131.6947921415243
 31
0.0
  0
LINE
  5
1BA
330
1F
100
AcDbEntity
  8
0
  6
Continuous
 62
     7
100
AcDbLine
 10
42.04045769358524
 20
131.5036983308038
 30
0.0
 11
39.69306180127356
 21
132.8579651917528
 31
0.0
  0
LINE
  5
1BB
330
1F
100
AcDbEntity
  8
0
  6
Continuous
 62
     7
100
AcDbLine
 10
39.69306180127356
 20
132.6847921415243
 30
0.0
 11
41.96549932556184
 21
131.3737704928965
 31
0.0
  0
LINE
  5
1BC
330
1F
100
AcDbEntity
  8
0
  6
Continuous
 62
     7
100
AcDbLine
 10
41.29306180127355
 20
133.8635215976238
 30
0.0
 11
38.09306180127356
 21
133.8635215976238
 31
0.0
  0
LINE
  5
1BD
330
1F
100
AcDbEntity
  8
0
  6
Continuous
 62
     7
100
AcDbLine
 10
40.45803682208762
 20
130.6027603955348
 30
0.0
 11
40.81803682208764
 21
130.810452703227
 31
0.0
  0
LINE
  5
1BE
330
1F
100
AcDbEntity
  8
0
  6
Continuous
 62
     7
100
AcDbLine
 10
40.72808678045962
 20
130.9663661087158
 30
0.0
 11
40.50306180127362
 21
130.8365440053393
 31
0.0
  0
LINE
  5
1BF
330
1F
100
AcDbEntity
  8
0
  6
Continuous
 62
     7
100
AcDbLine
 10
40.50306180127362
 20
130.8365440053393
 30
0.0
 11
40.50306180127359
 21
131.2447921415243
 31
0.0
  0
LINE
  5
1C0
330
1F
100
AcDbEntity
  8
0
  6
Continuous
 62
     7
100
AcDbLine
 10
40.50306180127359
 20
131.2447921415243
 30
0.0
 11
40.7730618012736
 21
131.2447921415243
 31
0.0
  0
LINE
  5
1C1
330
1F
100
AcDbEntity
  8
0
  6
Continuous
 62
     7
100
AcDbLine
 10
41.96549932556184
 20
131.2958137901521
 30
0.0
 11
39.69306180127356
 21
129.9847921415243
 31
0.0
  0
LINE
  5
1C2
330
1F
100
AcDbEntity
  8
0
  6
Continuous
 62
     7
100
AcDbLine
 10
38.88892680127358
 20
137.9057435100589
 30
0.0
 11
38.88892680127358
 21
137.7337848210806
 31
0.0
  0
LINE
  5
1C3
330
1F
100
AcDbEntity
  8
0
  6
Continuous
 62
     7
100
AcDbLine
 10
40.49719680127359
 20
137.9057435100589
 30
0.0
 11
40.49719680127359
 21
137.7337848210806
 31
0.0
  0
LINE
  5
1C4
330
1F
100
AcDbEntity
  8
0
  6
Continuous
 62
     7
100
AcDbLine
 10
40.85978799023138
 20
137.8078127676288
 30
0.0
 11
40.85978799023138
 21
137.6823787761331
 31
0.0
  0
LINE
  5
1C5
330
1F
100
AcDbEntity
  8
0
  6
Continuous
 62
     7
100
AcDbLine
 10
38.01631271952164
 20
137.2135215976238
 30
0.0
 11
38.01631271952164
 21
137.0351346473046
 31
0.0
  0
LINE
  5
1C6
330
1F
100
AcDbEntity
  8
0
  6
Continuous
 62
     7
100
AcDbLine
 10
39.69306180127356
 20
129.8116190912958
 30
0.0
 11
42.04045769358527
 21
131.1658859522449
 31
0.0
  0
LINE
  5
1C7
330
1F
100
AcDbEntity
  8
1
  6
DOT_CENTER
 62
     7
100
AcDbLine
 10
38.507708314551
 20
121.1135849438564
 30
0.0
 11
37.0783042791027
 21
121.1135849438564
 31
0.0
  0
LINE
  5
1C8
330
1F
100
AcDbEntity
  8
1
  6
DOT_CENTER
 62
     7
100
AcDbLine
 10
37.79300629682683
 20
121.8282869615806
 30
0.0
 11
37.79300629682683
 21
120.3988829261323
 31
0.0
  0
LINE
  5
1C9
330
1F
100
AcDbEntity
  8
1
  6
DOT_CENTER
 62
     7
100
AcDbLine
 10
42.55306180127354
 20
118.3135215976239
 30
0.0
 11
36.83306180127352
 21
118.3135215976239
 31
0.0
  0
LINE
  5
1CA
330
1F
100
AcDbEntity
  8
1
  6
DOT_CENTER
 62
     7
100
AcDbLine
 10
39.69306180127356
 20
121.1735215976239
 30
0.0
 11
39.69306180127356
 21
115.4535215976239
 31
0.0
  0
LINE
  5
1CB
330
1F
100
AcDbEntity
  8
1
  6
DOT_CENTER
 62
     7
100
AcDbLine
 10
37.5530618012736
 20
122.5135215976237
 30
0.0
 11
31.83306180127357
 21
122.5135215976237
 31
0.0
  0
LINE
  5
1CC
330
1F
100
AcDbEntity
  8
1
  6
DOT_CENTER
 62
     7
100
AcDbLine
 10
34.69306180127359
 20
125.3735215976237
 30
0.0
 11
34.69306180127359
 21
119.6535215976237
 31
0.0
  0
LINE
  5
1CD
330
1F
100
AcDbEntity
  8
1
  6
DOT_CENTER
 62
     7
100
AcDbLine
 10
47.55306180127354
 20
122.5135215976237
 30
0.0
 11
41.83306180127352
 21
122.5135215976237
 31
0.0
  0
LINE
  5
1CE
330
1F
100
AcDbEntity
  8
1
  6
DOT_CENTER
 62
     7
100
AcDbLine
 10
44.69306180127356
 20
125.3735215976237
 30
0.0
 11
44.69306180127356
 21
119.6535215976237
 31
0.0
  0
LINE
  5
1CF
330
1F
100
AcDbEntity
  8
1
  6
DOT_CENTER
 62
     7
100
AcDbLine
 10
47.34527492531777
 20
127.8643667226935
 30
0.0
 11
41.62527492531774
 21
127.8643667226935
 31
0.0
  0
LINE
  5
1D0
330
1F
100
AcDbEntity
  8
1
  6
DOT_CENTER
 62
     7
100
AcDbLine
 10
44.48527492531775
 20
130.7243667226935
 30
0.0
 11
44.48527492531775
 21
125.0043667226935
 31
0.0
  0
LINE
  5
1D1
330
1F
100
AcDbEntity
  8
1
  6
DOT_CENTER
 62
     7
100
AcDbLine
 10
37.76084867722929
 20
127.8643667226936
 30
0.0
 11
32.04084867722924
 21
127.8643667226936
 31
0.0
  0
LINE
  5
1D2
330
1F
100
AcDbEntity
  8
1
  6
DOT_CENTER
 62
     7
100
AcDbLine
 10
34.90084867722928
 20
130.7243667226936
 30
0.0
 11
34.90084867722928
 21
125.0043667226936
 31
0.0
  0
LINE
  5
1D3
330
1F
100
AcDbEntity
  8
1
  6
DOT_CENTER
 62
     7
100
AcDbLine
 10
39.69306180127359
 20
136.1421795303342
 30
0.0
 11
39.69306180127359
 21
133.8635215976238
 31
0.0
  0
LINE
  5
1D4
330
1F
100
AcDbEntity
  8
1
  6
DOT_CENTER
 62
     7
100
AcDbLine
 10
39.69306180127359
 20
137.2135215976238
 30
0.0
 11
39.69306180127359
 21
136.8421795303342
 31
0.0
  0
LINE
  5
1D5
330
1F
100
AcDbEntity
  8
0
  6
Continuous
 62
     7
100
AcDbLine
 10
47.08527492531778
 20
62.66352197533107
 30
0.0
 11
41.88527492531773
 21
62.66352197533107
 31
0.0
  0
LINE
  5
1D6
330
1F
100
AcDbEntity
  8
0
  6
Continuous
 62
     7
100
AcDbLine
 10
41.88527492531773
 20
62.66352197533107
 30
0.0
 11
37.5008486772293
 21
62.66352197533107
 31
0.0
  0
LINE
  5
1D7
330
1F
100
AcDbEntity
  8
0
  6
Continuous
 62
     7
100
AcDbLine
 10
47.29306180127355
 20
62.66352197533107
 30
0.0
 11
47.08527492531778
 21
62.66352197533107
 31
0.0
  0
LINE
  5
1D8
330
1F
100
AcDbEntity
  8
0
  6
Continuous
 62
     7
100
AcDbLine
 10
37.5008486772293
 20
62.66352197533107
 30
0.0
 11
32.30084867722925
 21
62.66352197533107
 31
0.0
  0
LINE
  5
1D9
330
1F
100
AcDbEntity
  8
0
  6
Continuous
 62
     7
100
AcDbLine
 10
32.30084867722925
 20
63.16352197533108
 30
0.0
 11
32.30084867722925
 21
62.66352197533107
 31
0.0
  0
LINE
  5
1DA
330
1F
100
AcDbEntity
  8
0
  6
Continuous
 62
     7
100
AcDbLine
 10
32.30084867722925
 20
62.66352197533107
 30
0.0
 11
32.09306180127356
 21
62.66352197533108
 31
0.0
  0
LINE
  5
1DB
330
1F
100
AcDbEntity
  8
0
  6
Continuous
 62
     7
100
AcDbLine
 10
37.5008486772293
 20
63.16352197533108
 30
0.0
 11
37.5008486772293
 21
62.66352197533107
 31
0.0
  0
LINE
  5
1DC
330
1F
100
AcDbEntity
  8
0
  6
Continuous
 62
     7
100
AcDbLine
 10
32.09306180127356
 20
63.16352197533108
 30
0.0
 11
32.09306180127356
 21
62.66352197533108
 31
0.0
  0
LINE
  5
1DD
330
1F
100
AcDbEntity
  8
0
  6
Continuous
 62
     7
100
AcDbLine
 10
41.88527492531773
 20
63.16352197533107
 30
0.0
 11
41.88527492531773
 21
62.66352197533107
 31
0.0
  0
LINE
  5
1DE
330
1F
100
AcDbEntity
  8
0
  6
Continuous
 62
     7
100
AcDbLine
 10
50.19306180127356
 20
63.16352197533107
 30
0.0
 11
47.29306180127355
 21
63.16352197533107
 31
0.0
  0
LINE
  5
1DF
330
1F
100
AcDbEntity
  8
0
  6
Continuous
 62
     7
100
AcDbLine
 10
47.29306180127355
 20
63.16352197533107
 30
0.0
 11
47.19306180127356
 21
63.16352197533107
 31
0.0
  0
LINE
  5
1E0
330
1F
100
AcDbEntity
  8
0
  6
Continuous
 62
     7
100
AcDbLine
 10
32.09306180127356
 20
63.16352197533108
 30
0.0
 11
29.69306180127356
 21
63.16352197533108
 31
0.0
  0
LINE
  5
1E1
330
1F
100
AcDbEntity
  8
0
  6
Continuous
 62
     7
100
AcDbLine
 10
32.19306180127356
 20
63.16352197533108
 30
0.0
 11
32.09306180127356
 21
63.16352197533108
 31
0.0
  0
LINE
  5
1E2
330
1F
100
AcDbEntity
  8
0
  6
Continuous
 62
     7
100
AcDbLine
 10
29.19306180127356
 20
63.66352197533111
 30
0.0
 11
29.19306180127357
 21
82.66352197533111
 31
0.0
  0
LINE
  5
1E3
330
1F
100
AcDbEntity
  8
0
  6
Continuous
 62
     7
100
AcDbLine
 10
47.08527492531778
 20
63.16352197533107
 30
0.0
 11
47.19306180127356
 21
63.16352197533107
 31
0.0
  0
LINE
  5
1E4
330
1F
100
AcDbEntity
  8
0
  6
Continuous
 62
     7
100
AcDbLine
 10
32.30084867722925
 20
63.16352197533108
 30
0.0
 11
34.89306180127349
 21
63.16352197533107
 31
0.0
  0
LINE
  5
1E5
330
1F
100
AcDbEntity
  8
0
  6
Continuous
 62
     7
100
AcDbLine
 10
32.19306180127356
 20
63.16352197533108
 30
0.0
 11
32.30084867722925
 21
63.16352197533108
 31
0.0
  0
LINE
  5
1E6
330
1F
100
AcDbEntity
  8
0
  6
Continuous
 62
     7
100
AcDbLine
 10
36.69306180127339
 20
63.16352197533107
 30
0.0
 11
37.5008486772293
 21
63.16352197533108
 31
0.0
  0
LINE
  5
1E7
330
1F
100
AcDbEntity
  8
0
  6
Continuous
 62
     7
100
AcDbLine
 10
37.5008486772293
 20
63.16352197533108
 30
0.0
 11
41.88527492531773
 21
63.16352197533107
 31
0.0
  0
LINE
  5
1E8
330
1F
100
AcDbEntity
  8
0
  6
Continuous
 62
     7
100
AcDbLine
 10
41.88527492531773
 20
63.16352197533107
 30
0.0
 11
42.69306180127379
 21
63.16352197533107
 31
0.0
  0
LINE
  5
1E9
330
1F
100
AcDbEntity
  8
0
  6
Continuous
 62
     7
100
AcDbLine
 10
42.69306180127379
 20
63.16352197533107
 30
0.0
 11
44.49306180127363
 21
63.16352197533107
 31
0.0
  0
LINE
  5
1EA
330
1F
100
AcDbEntity
  8
0
  6
Continuous
 62
     7
100
AcDbLine
 10
29.19306180127356
 20
63.66352197533111
 30
0.0
 11
29.69306180127356
 21
63.16352197533108
 31
0.0
  0
LINE
  5
1EB
330
1F
100
AcDbEntity
  8
0
  6
Continuous
 62
     7
100
AcDbLine
 10
47.29306180127355
 20
63.16352197533107
 30
0.0
 11
47.29306180127355
 21
62.66352197533107
 31
0.0
  0
LINE
  5
1EC
330
1F
100
AcDbEntity
  8
0
  6
Continuous
 62
     7
100
AcDbLine
 10
50.19306180127359
 20
82.66352197533111
 30
0.0
 11
47.94306180127359
 21
82.66352197533111
 31
0.0
  0
LINE
  5
1ED
330
1F
100
AcDbEntity
  8
0
  6
Continuous
 62
     7
100
AcDbLine
 10
47.94306180127359
 20
93.46352197533109
 30
0.0
 11
47.94306180127359
 21
82.66352197533111
 31
0.0
  0
LINE
  5
1EE
330
1F
100
AcDbEntity
  8
0
  6
Continuous
 62
     7
100
AcDbLine
 10
47.94306180127359
 20
82.66352197533111
 30
0.0
 11
47.19306180127359
 21
82.66352197533111
 31
0.0
  0
LINE
  5
1EF
330
1F
100
AcDbEntity
  8
0
  6
Continuous
 62
     7
100
AcDbLine
 10
50.19306180127359
 20
82.66352197533111
 30
0.0
 11
50.19306180127356
 21
63.16352197533107
 31
0.0
  0
LINE
  5
1F0
330
1F
100
AcDbEntity
  8
0
  6
Continuous
 62
     7
100
AcDbLine
 10
47.08527492531778
 20
63.16352197533107
 30
0.0
 11
47.08527492531778
 21
62.66352197533107
 31
0.0
  0
LINE
  5
1F1
330
1F
100
AcDbEntity
  8
0
  6
Continuous
 62
     7
100
AcDbLine
 10
47.19306180127359
 20
82.66352197533111
 30
0.0
 11
32.19306180127359
 21
82.66352197533111
 31
0.0
  0
LINE
  5
1F2
330
1F
100
AcDbEntity
  8
0
  6
Continuous
 62
     7
100
AcDbLine
 10
36.69306180127356
 20
80.66352197533114
 30
0.0
 11
42.69306180127359
 21
80.66352197533114
 31
0.0
  0
LINE
  5
1F3
330
1F
100
AcDbEntity
  8
0
  6
Continuous
 62
     7
100
AcDbLine
 10
44.49306180127357
 20
82.46352197533109
 30
0.0
 11
34.89306180127358
 21
82.46352197533109
 31
0.0
  0
LINE
  5
1F4
330
1F
100
AcDbEntity
  8
0
  6
Continuous
 62
     7
100
AcDbLine
 10
42.69306180127359
 20
80.66352197533114
 30
0.0
 11
44.49306180127357
 21
82.46352197533109
 31
0.0
  0
LINE
  5
1F5
330
1F
100
AcDbEntity
  8
0
  6
Continuous
 62
     7
100
AcDbLine
 10
34.89306180127358
 20
82.46352197533109
 30
0.0
 11
36.69306180127356
 21
80.66352197533114
 31
0.0
  0
LINE
  5
1F6
330
1F
100
AcDbEntity
  8
0
  6
Continuous
 62
     7
100
AcDbLine
 10
42.72856963885863
 20
93.96352197533109
 30
0.0
 11
36.65755396368851
 21
93.96352197533109
 31
0.0
  0
LINE
  5
1F7
330
1F
100
AcDbEntity
  8
0
  6
Continuous
 62
     7
100
AcDbLine
 10
42.91055475599174
 20
93.46352197533109
 30
0.0
 11
42.91055475599174
 21
92.46352197533109
 31
0.0
  0
LINE
  5
1F8
330
1F
100
AcDbEntity
  8
0
  6
Continuous
 62
     7
100
AcDbLine
 10
42.69306180127379
 20
73.86352197533107
 30
0.0
 11
42.69306180127379
 21
63.16352197533107
 31
0.0
  0
LINE
  5
1F9
330
1F
100
AcDbEntity
  8
0
  6
Continuous
 62
     7
100
AcDbLine
 10
36.80385775863485
 20
77.41352197533111
 30
0.0
 11
36.90424484779672
 21
77.41352197533111
 31
0.0
  0
LINE
  5
1FA
330
1F
100
AcDbEntity
  8
0
  6
Continuous
 62
     7
100
AcDbLine
 10
36.90424484779672
 20
77.91352197533111
 30
0.0
 11
36.80385775863485
 21
77.91352197533111
 31
0.0
  0
LINE
  5
1FB
330
1F
100
AcDbEntity
  8
0
  6
Continuous
 62
     7
100
AcDbLine
 10
39.69306180127359
 20
76.8593869753311
 30
0.0
 11
39.09202103726503
 21
76.49679578637331
 31
0.0
  0
LINE
  5
1FC
330
1F
100
AcDbEntity
  8
0
  6
Continuous
 62
     7
100
AcDbLine
 10
40.29410256528217
 20
76.49679578637331
 30
0.0
 11
39.69306180127359
 21
76.8593869753311
 31
0.0
  0
LINE
  5
1FD
330
1F
100
AcDbEntity
  8
0
  6
Continuous
 62
     7
100
AcDbLine
 10
41.21334138082469
 20
76.70892782072927
 30
0.0
 11
40.64765595587545
 21
76.14324239578004
 31
0.0
  0
LINE
  5
1FE
330
1F
100
AcDbEntity
  8
0
  6
Continuous
 62
     7
100
AcDbLine
 10
40.64765595587545
 20
76.14324239578004
 30
0.0
 11
40.29410256528217
 21
76.49679578637331
 31
0.0
  0
LINE
  5
1FF
330
1F
100
AcDbEntity
  8
0
  6
Continuous
 62
     7
100
AcDbLine
 10
37.45062729457243
 20
75.98677289357919
 30
0.0
 11
38.52633561231579
 21
77.06248121132255
 31
0.0
  0
LINE
  5
200
330
1F
100
AcDbEntity
  8
0
  6
Continuous
 62
     7
100
AcDbLine
 10
40.85978799023138
 20
77.06248121132252
 30
0.0
 11
41.21334138082469
 21
76.70892782072927
 31
0.0
  0
LINE
  5
201
330
1F
100
AcDbEntity
  8
0
  6
Continuous
 62
     7
100
AcDbLine
 10
41.89306180127363
 20
74.16352197533105
 30
0.0
 11
41.8930618012736
 21
73.86352197533107
 31
0.0
  0
LINE
  5
202
330
1F
100
AcDbEntity
  8
0
  6
Continuous
 62
     7
100
AcDbLine
 10
37.49306180127354
 20
73.86352197533107
 30
0.0
 11
37.49306180127351
 21
74.16352197533105
 31
0.0
  0
LINE
  5
203
330
1F
100
AcDbEntity
  8
0
  6
Continuous
 62
     7
100
AcDbLine
 10
37.49306180127351
 20
74.16352197533105
 30
0.0
 11
36.69306180127353
 21
74.16352197533105
 31
0.0
  0
LINE
  5
204
330
1F
100
AcDbEntity
  8
0
  6
Continuous
 62
     7
100
AcDbLine
 10
41.89306180127363
 20
74.16352197533105
 30
0.0
 11
37.49306180127351
 21
74.16352197533105
 31
0.0
  0
LINE
  5
205
330
1F
100
AcDbEntity
  8
0
  6
Continuous
 62
     7
100
AcDbLine
 10
42.69306180127359
 20
74.16352197533105
 30
0.0
 11
41.89306180127363
 21
74.16352197533105
 31
0.0
  0
LINE
  5
206
330
1F
100
AcDbEntity
  8
0
  6
Continuous
 62
     7
100
AcDbLine
 10
39.09202103726503
 20
76.49679578637331
 30
0.0
 11
38.01631271952167
 21
75.42108746862998
 31
0.0
  0
LINE
  5
207
330
1F
100
AcDbEntity
  8
0
  6
Continuous
 62
     7
100
AcDbLine
 10
44.5371348794647
 20
93.96352197533109
 30
0.0
 11
42.72856963885863
 21
93.96352197533109
 31
0.0
  0
LINE
  5
208
330
1F
100
AcDbEntity
  8
0
  6
Continuous
 62
     7
100
AcDbLine
 10
44.71578377898035
 20
92.46352197533109
 30
0.0
 11
44.44306180127359
 21
92.46352197533109
 31
0.0
  0
LINE
  5
209
330
1F
100
AcDbEntity
  8
0
  6
Continuous
 62
     7
100
AcDbLine
 10
44.49306180127363
 20
63.16352197533107
 30
0.0
 11
47.08527492531778
 21
63.16352197533107
 31
0.0
  0
LINE
  5
20A
330
1F
100
AcDbEntity
  8
0
  6
Continuous
 62
     7
100
AcDbLine
 10
47.44306180127359
 20
93.96352197533109
 30
0.0
 11
44.5371348794647
 21
93.96352197533109
 31
0.0
  0
LINE
  5
20B
330
1F
100
AcDbEntity
  8
0
  6
Continuous
 62
     7
100
AcDbLine
 10
44.49306180127357
 20
82.46352197533109
 30
0.0
 11
44.49306180127363
 21
63.16352197533107
 31
0.0
  0
LINE
  5
20C
330
1F
100
AcDbEntity
  8
0
  6
Continuous
 62
     7
100
AcDbLine
 10
44.71578377898035
 20
93.46352197533109
 30
0.0
 11
44.71578377898035
 21
92.46352197533109
 31
0.0
  0
LINE
  5
20D
330
1F
100
AcDbEntity
  8
0
  6
Continuous
 62
     7
100
AcDbLine
 10
34.84898872308247
 20
93.96352197533109
 30
0.0
 11
31.94306180127359
 21
93.96352197533112
 31
0.0
  0
LINE
  5
20E
330
1F
100
AcDbEntity
  8
0
  6
Continuous
 62
     7
100
AcDbLine
 10
31.44306180127359
 20
82.66352197533111
 30
0.0
 11
32.19306180127359
 21
82.66352197533111
 31
0.0
  0
LINE
  5
20F
330
1F
100
AcDbEntity
  8
0
  6
Continuous
 62
     7
100
AcDbLine
 10
31.44306180127359
 20
82.66352197533111
 30
0.0
 11
31.44306180127359
 21
93.46352197533112
 31
0.0
  0
LINE
  5
210
330
1F
100
AcDbEntity
  8
0
  6
Continuous
 62
     7
100
AcDbLine
 10
29.19306180127357
 20
82.66352197533111
 30
0.0
 11
31.44306180127359
 21
82.66352197533111
 31
0.0
  0
LINE
  5
211
330
1F
100
AcDbEntity
  8
0
  6
Continuous
 62
     7
100
AcDbLine
 10
42.69306180127379
 20
73.86352197533107
 30
0.0
 11
41.8930618012736
 21
73.86352197533107
 31
0.0
  0
LINE
  5
212
330
1F
100
AcDbEntity
  8
0
  6
Continuous
 62
     7
100
AcDbLine
 10
37.49306180127354
 20
73.86352197533107
 30
0.0
 11
36.69306180127333
 21
73.86352197533107
 31
0.0
  0
LINE
  5
213
330
1F
100
AcDbEntity
  8
0
  6
Continuous
 62
     7
100
AcDbLine
 10
41.8930618012736
 20
73.86352197533107
 30
0.0
 11
37.49306180127354
 21
73.86352197533107
 31
0.0
  0
LINE
  5
214
330
1F
100
AcDbEntity
  8
0
  6
Continuous
 62
     7
100
AcDbLine
 10
36.65755396368851
 20
93.96352197533109
 30
0.0
 11
34.84898872308247
 21
93.96352197533109
 31
0.0
  0
LINE
  5
215
330
1F
100
AcDbEntity
  8
0
  6
Continuous
 62
     7
100
AcDbLine
 10
36.4755688465554
 20
93.46352197533109
 30
0.0
 11
36.4755688465554
 21
92.46352197533109
 31
0.0
  0
LINE
  5
216
330
1F
100
AcDbEntity
  8
0
  6
Continuous
 62
     7
100
AcDbLine
 10
34.67033982356679
 20
92.46352197533109
 30
0.0
 11
34.94306180127359
 21
92.46352197533109
 31
0.0
  0
LINE
  5
217
330
1F
100
AcDbEntity
  8
0
  6
Continuous
 62
     7
100
AcDbLine
 10
36.4755688465554
 20
92.46352197533109
 30
0.0
 11
34.94306180127359
 21
92.46352197533109
 31
0.0
  0
LINE
  5
218
330
1F
100
AcDbEntity
  8
0
  6
Continuous
 62
     7
100
AcDbLine
 10
34.67033982356679
 20
92.46352197533109
 30
0.0
 11
34.67033982356679
 21
93.46352197533109
 31
0.0
  0
LINE
  5
219
330
1F
100
AcDbEntity
  8
0
  6
Continuous
 62
     7
100
AcDbLine
 10
36.69306180127356
 20
80.66352197533114
 30
0.0
 11
36.69306180127353
 21
74.16352197533105
 31
0.0
  0
LINE
  5
21A
330
1F
100
AcDbEntity
  8
0
  6
Continuous
 62
     7
100
AcDbLine
 10
34.89306180127349
 20
63.16352197533107
 30
0.0
 11
36.69306180127339
 21
63.16352197533107
 31
0.0
  0
LINE
  5
21B
330
1F
100
AcDbEntity
  8
0
  6
Continuous
 62
     7
100
AcDbLine
 10
36.69306180127333
 20
73.86352197533107
 30
0.0
 11
36.69306180127339
 21
63.16352197533107
 31
0.0
  0
LINE
  5
21C
330
1F
100
AcDbEntity
  8
0
  6
Continuous
 62
     7
100
AcDbLine
 10
34.89306180127349
 20
63.16352197533107
 30
0.0
 11
34.89306180127358
 21
82.46352197533109
 31
0.0
  0
LINE
  5
21D
330
1F
100
AcDbEntity
  8
0
  6
Continuous
 62
     7
100
AcDbLine
 10
44.44306180127359
 20
92.46352197533109
 30
0.0
 11
42.91055475599174
 21
92.46352197533109
 31
0.0
  0
LINE
  5
21E
330
1F
100
AcDbEntity
  8
0
  6
Continuous
 62
     7
100
AcDbLine
 10
37.82048706484457
 20
75.44914534600902
 30
0.0
 11
37.89145346599199
 21
75.52011174715643
 31
0.0
  0
LINE
  5
21F
330
1F
100
AcDbEntity
  8
0
  6
Continuous
 62
     7
100
AcDbLine
 10
37.53895352839336
 20
75.87471859074437
 30
0.0
 11
37.46795052409073
 21
75.80371558644173
 31
0.0
  0
LINE
  5
220
330
1F
100
AcDbEntity
  8
0
  6
Continuous
 62
     7
100
AcDbLine
 10
37.46795052409073
 20
79.52332836422049
 30
0.0
 11
37.53895352839336
 21
79.45232535991785
 31
0.0
  0
LINE
  5
221
330
1F
100
AcDbEntity
  8
0
  6
Continuous
 62
     7
100
AcDbLine
 10
37.89145346599199
 20
79.80693220350578
 30
0.0
 11
37.82048706484457
 21
79.8778986046532
 31
0.0
  0
LINE
  5
222
330
1F
100
AcDbEntity
  8
0
  6
Continuous
 62
     7
100
AcDbLine
 10
39.69306180127359
 20
78.46765697533111
 30
0.0
 11
40.29410256528212
 21
78.83024816428885
 31
0.0
  0
LINE
  5
223
330
1F
100
AcDbEntity
  8
0
  6
Continuous
 62
     7
100
AcDbLine
 10
39.93131030357338
 20
74.7733251565743
 30
0.0
 11
39.93131030357338
 21
74.87367652241586
 31
0.0
  0
LINE
  5
224
330
1F
100
AcDbEntity
  8
0
  6
Continuous
 62
     7
100
AcDbLine
 10
40.85978799023138
 20
78.26456273933967
 30
0.0
 11
40.49719680127359
 21
77.66352197533111
 31
0.0
  0
LINE
  5
225
330
1F
100
AcDbEntity
  8
0
  6
Continuous
 62
     7
100
AcDbLine
 10
40.49719680127359
 20
77.66352197533111
 30
0.0
 11
40.85978799023138
 21
77.06248121132252
 31
0.0
  0
LINE
  5
226
330
1F
100
AcDbEntity
  8
0
  6
Continuous
 62
     7
100
AcDbLine
 10
40.85978799023138
 20
78.26456273933967
 30
0.0
 11
40.29410256528212
 21
78.83024816428885
 31
0.0
  0
LINE
  5
227
330
1F
100
AcDbEntity
  8
0
  6
Continuous
 62
     7
100
AcDbLine
 10
39.09202103726503
 20
78.8302481642889
 30
0.0
 11
39.69306180127359
 21
78.46765697533111
 31
0.0
  0
LINE
  5
228
330
1F
100
AcDbEntity
  8
0
  6
Continuous
 62
     7
100
AcDbLine
 10
39.43131030357338
 20
80.55168508593475
 30
0.0
 11
39.43131030357338
 21
80.45126051282914
 31
0.0
  0
LINE
  5
229
330
1F
100
AcDbEntity
  8
0
  6
Continuous
 62
     7
100
AcDbLine
 10
39.43131030357338
 20
74.87578343783305
 30
0.0
 11
39.43131030357338
 21
74.77535886472747
 31
0.0
  0
LINE
  5
22A
330
1F
100
AcDbEntity
  8
0
  6
Continuous
 62
     7
100
AcDbLine
 10
41.48186518586033
 20
75.50941370245089
 30
0.0
 11
41.55286819016297
 21
75.43841069814825
 31
0.0
  0
LINE
  5
22B
330
1F
100
AcDbEntity
  8
0
  6
Continuous
 62
     7
100
AcDbLine
 10
41.90743843059568
 20
75.79094723890209
 30
0.0
 11
41.83647202944826
 21
75.86191364004951
 31
0.0
  0
LINE
  5
22C
330
1F
100
AcDbEntity
  8
0
  6
Continuous
 62
     7
100
AcDbLine
 10
41.55286819016297
 20
79.88863325251394
 30
0.0
 11
41.48186518586033
 21
79.81763024821133
 31
0.0
  0
LINE
  5
22D
330
1F
100
AcDbEntity
  8
0
  6
Continuous
 62
     7
100
AcDbLine
 10
41.83647202944829
 20
79.46513031061271
 30
0.0
 11
41.90743843059568
 21
79.53609671176012
 31
0.0
  0
LINE
  5
22E
330
1F
100
AcDbEntity
  8
0
  6
Continuous
 62
     7
100
AcDbLine
 10
41.93549630797475
 20
79.34027105708306
 30
0.0
 11
40.85978799023138
 21
78.26456273933967
 31
0.0
  0
LINE
  5
22F
330
1F
100
AcDbEntity
  8
0
  6
Continuous
 62
     7
100
AcDbLine
 10
38.73846764667178
 20
79.18380155488218
 30
0.0
 11
39.09202103726503
 21
78.8302481642889
 31
0.0
  0
LINE
  5
230
330
1F
100
AcDbEntity
  8
0
  6
Continuous
 62
     7
100
AcDbLine
 10
38.17278222172251
 20
78.61811612993294
 30
0.0
 11
38.73846764667178
 21
79.18380155488218
 31
0.0
  0
LINE
  5
231
330
1F
100
AcDbEntity
  8
0
  6
Continuous
 62
     7
100
AcDbLine
 10
38.52633561231579
 20
78.26456273933967
 30
0.0
 11
38.17278222172251
 21
78.61811612993294
 31
0.0
  0
LINE
  5
232
330
1F
100
AcDbEntity
  8
0
  6
Continuous
 62
     7
100
AcDbLine
 10
38.88892680127361
 20
77.66352197533111
 30
0.0
 11
38.52633561231579
 21
78.26456273933967
 31
0.0
  0
LINE
  5
233
330
1F
100
AcDbEntity
  8
0
  6
Continuous
 62
     7
100
AcDbLine
 10
38.52633561231579
 20
77.06248121132255
 30
0.0
 11
38.88892680127361
 21
77.66352197533111
 31
0.0
  0
LINE
  5
234
330
1F
100
AcDbEntity
  8
0
  6
Continuous
 62
     7
100
AcDbLine
 10
38.52633561231579
 20
77.06248121132255
 30
0.0
 11
39.09202103726503
 21
76.49679578637331
 31
0.0
  0
LINE
  5
235
330
1F
100
AcDbEntity
  8
0
  6
Continuous
 62
     7
100
AcDbLine
 10
40.29410256528212
 20
78.83024816428885
 30
0.0
 11
41.36981088302551
 21
79.90595648203227
 31
0.0
  0
LINE
  5
236
330
1F
100
AcDbEntity
  8
0
  6
Continuous
 62
     7
100
AcDbLine
 10
39.93131030357338
 20
80.45336742824635
 30
0.0
 11
39.93131030357338
 21
80.55371879408791
 31
0.0
  0
LINE
  5
237
330
1F
100
AcDbEntity
  8
0
  6
Continuous
 62
     7
100
AcDbLine
 10
42.69306180127359
 20
74.16352197533105
 30
0.0
 11
42.69306180127359
 21
80.66352197533114
 31
0.0
  0
LINE
  5
238
330
1F
100
AcDbEntity
  8
0
  6
Continuous
 62
     7
100
AcDbLine
 10
42.48187875475048
 20
77.41352197533111
 30
0.0
 11
42.58226584391232
 21
77.41352197533111
 31
0.0
  0
LINE
  5
239
330
1F
100
AcDbEntity
  8
0
  6
Continuous
 62
     7
100
AcDbLine
 10
42.58226584391232
 20
77.91352197533111
 30
0.0
 11
42.48187875475048
 21
77.91352197533111
 31
0.0
  0
LINE
  5
23A
330
1F
100
AcDbEntity
  8
1
  6
DOT_CENTER
 62
     7
100
AcDbLine
 10
42.7730618012736
 20
77.66352197533111
 30
0.0
 11
36.6130618012736
 21
77.66352197533111
 31
0.0
  0
LINE
  5
23B
330
1F
100
AcDbEntity
  8
1
  6
DOT_CENTER
 62
     7
100
AcDbLine
 10
39.69306180127359
 20
80.74352197533112
 30
0.0
 11
39.69306180127359
 21
74.58352197533112
 31
0.0
  0
LINE
  5
23C
330
1F
100
AcDbEntity
  8
1
  6
DOT_CENTER
 62
     7
100
AcDbLine
 10
44.48527492531775
 20
63.16352197533107
 30
0.0
 11
44.48527492531775
 21
62.66352197533107
 31
0.0
  0
LINE
  5
23D
330
1F
100
AcDbEntity
  8
1
  6
DOT_CENTER
 62
     7
100
AcDbLine
 10
34.90084867722928
 20
63.16352197533108
 30
0.0
 11
34.90084867722928
 21
62.66352197533107
 31
0.0
  0
LINE
  5
23E
330
1F
100
AcDbEntity
  8
0
  6
Continuous
 62
     7
100
AcDbLine
 10
71.24306222820178
 20
63.16352197533107
 30
0.0
 11
71.24306222820178
 21
62.66352197533107
 31
0.0
  0
LINE
  5
23F
330
1F
100
AcDbEntity
  8
0
  6
Continuous
 62
     7
100
AcDbLine
 10
71.53474983302402
 20
63.16352197533108
 30
0.0
 11
75.44306222820165
 21
63.16352197533107
 31
0.0
  0
LINE
  5
240
330
1F
100
AcDbEntity
  8
0
  6
Continuous
 62
     7
100
AcDbLine
 10
75.44306222820165
 20
63.16352197533107
 30
0.0
 11
79.09306222820175
 21
63.16352197533107
 31
0.0
  0
LINE
  5
241
330
1F
100
AcDbEntity
  8
0
  6
Continuous
 62
     7
100
AcDbLine
 10
79.09306222820175
 20
65.66352197533111
 30
0.0
 11
79.09306222820175
 21
63.66352197533111
 31
0.0
  0
LINE
  5
242
330
1F
100
AcDbEntity
  8
0
  6
Continuous
 62
     7
100
AcDbLine
 10
76.44306222820177
 20
77.66352197533108
 30
0.0
 11
76.44306222820177
 21
65.66352197533111
 31
0.0
  0
LINE
  5
243
330
1F
100
AcDbEntity
  8
0
  6
Continuous
 62
     7
100
AcDbLine
 10
76.19306222820174
 20
65.66352197533111
 30
0.0
 11
76.44306222820177
 21
65.66352197533111
 31
0.0
  0
LINE
  5
244
330
1F
100
AcDbEntity
  8
0
  6
Continuous
 62
     7
100
AcDbLine
 10
79.09306222820175
 20
74.66352197533111
 30
0.0
 11
79.09306222820175
 21
65.66352197533111
 31
0.0
  0
LINE
  5
245
330
1F
100
AcDbEntity
  8
0
  6
Continuous
 62
     7
100
AcDbLine
 10
79.19306222820174
 20
74.56352197533111
 30
0.0
 11
79.19306222820174
 21
65.66352197533111
 31
0.0
  0
LINE
  5
246
330
1F
100
AcDbEntity
  8
0
  6
Continuous
 62
     7
100
AcDbLine
 10
76.19306222820174
 20
77.96352197533109
 30
0.0
 11
76.19306222820174
 21
65.66352197533111
 31
0.0
  0
LINE
  5
247
330
1F
100
AcDbEntity
  8
0
  6
Continuous
 62
     7
100
AcDbLine
 10
75.44306222820165
 20
62.66352197533107
 30
0.0
 11
71.24306222820178
 21
62.66352197533107
 31
0.0
  0
LINE
  5
248
330
1F
100
AcDbEntity
  8
0
  6
Continuous
 62
     7
100
AcDbLine
 10
91.19306222820174
 20
79.38486404262069
 30
0.0
 11
91.19306222820174
 21
82.66352197533111
 31
0.0
  0
LINE
  5
249
330
1F
100
AcDbEntity
  8
0
  6
Continuous
 62
     7
100
AcDbLine
 10
82.29306222820176
 20
63.16352197533107
 30
0.0
 11
85.99390735327154
 21
63.16352197533107
 31
0.0
  0
LINE
  5
24A
330
1F
100
AcDbEntity
  8
0
  6
Continuous
 62
     7
100
AcDbLine
 10
85.99390735327154
 20
63.16352197533107
 30
0.0
 11
89.85137462337946
 21
63.16352197533107
 31
0.0
  0
LINE
  5
24B
330
1F
100
AcDbEntity
  8
0
  6
Continuous
 62
     7
100
AcDbLine
 10
88.19306222820174
 20
63.66352197533111
 30
0.0
 11
82.29306222820176
 21
63.66352197533111
 31
0.0
  0
LINE
  5
24C
330
1F
100
AcDbEntity
  8
0
  6
Continuous
 62
     7
100
AcDbLine
 10
82.29306222820176
 20
63.16352197533107
 30
0.0
 11
82.29306222820176
 21
63.66352197533111
 31
0.0
  0
LINE
  5
24D
330
1F
100
AcDbEntity
  8
0
  6
Continuous
 62
     7
100
AcDbLine
 10
85.19306222820174
 20
65.66352197533132
 30
0.0
 11
85.19306222820174
 21
77.96352197533109
 31
0.0
  0
LINE
  5
24E
330
1F
100
AcDbEntity
  8
0
  6
Continuous
 62
     7
100
AcDbLine
 10
82.29306222820176
 20
63.66352197533111
 30
0.0
 11
82.29306222820176
 21
65.66352197533111
 31
0.0
  0
LINE
  5
24F
330
1F
100
AcDbEntity
  8
0
  6
Continuous
 62
     7
100
AcDbLine
 10
82.29306222820176
 20
65.66352197533111
 30
0.0
 11
82.29306222820179
 21
74.66352197533111
 31
0.0
  0
LINE
  5
250
330
1F
100
AcDbEntity
  8
0
  6
Continuous
 62
     7
100
AcDbLine
 10
84.94306222820177
 20
65.66352197533111
 30
0.0
 11
84.94306222820177
 21
77.66352197533108
 31
0.0
  0
LINE
  5
251
330
1F
100
AcDbEntity
  8
0
  6
Continuous
 62
     7
100
AcDbLine
 10
84.94306222820177
 20
65.66352197533111
 30
0.0
 11
85.19306222820174
 21
65.66352197533132
 31
0.0
  0
LINE
  5
252
330
1F
100
AcDbEntity
  8
0
  6
Continuous
 62
     7
100
AcDbLine
 10
91.19306222820174
 20
79.38486404262069
 30
0.0
 11
91.19306222820174
 21
75.9421799080415
 31
0.0
  0
LINE
  5
253
330
1F
100
AcDbEntity
  8
0
  6
Continuous
 62
     7
100
AcDbLine
 10
91.19306222820174
 20
75.9421799080415
 30
0.0
 11
91.19306222820174
 21
63.16352197533105
 31
0.0
  0
LINE
  5
254
330
1F
100
AcDbEntity
  8
0
  6
Continuous
 62
     7
100
AcDbLine
 10
89.85137462337946
 20
63.16352197533107
 30
0.0
 11
91.19306222820174
 21
63.16352197533105
 31
0.0
  0
LINE
  5
255
330
1F
100
AcDbEntity
  8
0
  6
Continuous
 62
     7
100
AcDbLine
 10
85.99390735327154
 20
63.16352197533107
 30
0.0
 11
85.99390735327154
 21
62.66352197533105
 31
0.0
  0
LINE
  5
256
330
1F
100
AcDbEntity
  8
0
  6
Continuous
 62
     7
100
AcDbLine
 10
85.99390735327154
 20
62.66352197533105
 30
0.0
 11
80.79390735327149
 21
62.66352197533105
 31
0.0
  0
LINE
  5
257
330
1F
100
AcDbEntity
  8
0
  6
Continuous
 62
     7
100
AcDbLine
 10
84.94306222820177
 20
77.66352197533108
 30
0.0
 11
76.44306222820177
 21
77.66352197533108
 31
0.0
  0
LINE
  5
258
330
1F
100
AcDbEntity
  8
0
  6
Continuous
 62
     7
100
AcDbLine
 10
92.37172016091216
 20
75.80371558644173
 30
0.0
 11
92.37172016091216
 21
77.41352197533111
 31
0.0
  0
LINE
  5
259
330
1F
100
AcDbEntity
  8
0
  6
Continuous
 62
     7
100
AcDbLine
 10
91.67172016091217
 20
76.03275724513158
 30
0.0
 11
91.67172016091217
 21
75.946402135421
 31
0.0
  0
LINE
  5
25A
330
1F
100
AcDbEntity
  8
0
  6
Continuous
 62
     7
100
AcDbLine
 10
91.67172016086354
 20
76.30129963986816
 30
0.0
 11
91.67172016091217
 21
76.03275724513158
 31
0.0
  0
LINE
  5
25B
330
1F
100
AcDbEntity
  8
0
  6
Continuous
 62
     7
100
AcDbLine
 10
76.19306222820174
 20
77.96352197533109
 30
0.0
 11
79.19306222820174
 21
77.96352197533109
 31
0.0
  0
LINE
  5
25C
330
1F
100
AcDbEntity
  8
0
  6
Continuous
 62
     7
100
AcDbLine
 10
85.19306222820174
 20
77.96352197533109
 30
0.0
 11
82.19306222820174
 21
77.96352197533109
 31
0.0
  0
LINE
  5
25D
330
1F
100
AcDbEntity
  8
0
  6
Continuous
 62
     7
100
AcDbLine
 10
92.37172016091216
 20
80.55168508593472
 30
0.0
 11
92.37172016091216
 21
80.55371879408789
 31
0.0
  0
LINE
  5
25E
330
1F
100
AcDbEntity
  8
0
  6
Continuous
 62
     7
100
AcDbLine
 10
92.37172016091216
 20
79.8778986046532
 30
0.0
 11
92.37172016091216
 21
80.55168508593472
 31
0.0
  0
LINE
  5
25F
330
1F
100
AcDbEntity
  8
0
  6
Continuous
 62
     7
100
AcDbLine
 10
92.74306222820175
 20
75.98677289357919
 30
0.0
 11
92.74306222820178
 21
80.46352197533109
 31
0.0
  0
LINE
  5
260
330
1F
100
AcDbEntity
  8
0
  6
Continuous
 62
     7
100
AcDbLine
 10
92.74306222820178
 20
80.46352197533109
 30
0.0
 11
92.39306222820176
 21
80.46352197533109
 31
0.0
  0
LINE
  5
261
330
1F
100
AcDbEntity
  8
0
  6
Continuous
 62
     7
100
AcDbLine
 10
91.67172016091217
 20
79.29428670553064
 30
0.0
 11
91.67172016086354
 21
79.02574431079402
 31
0.0
  0
LINE
  5
262
330
1F
100
AcDbEntity
  8
0
  6
Continuous
 62
     7
100
AcDbLine
 10
91.67172016091217
 20
79.38064181524119
 30
0.0
 11
91.67172016091217
 21
79.29428670553064
 31
0.0
  0
LINE
  5
263
330
1F
100
AcDbEntity
  8
0
  6
Continuous
 62
     7
100
AcDbLine
 10
91.67172016087423
 20
79.85058339448592
 30
0.0
 11
91.67172016087363
 21
79.84789514707971
 31
0.0
  0
LINE
  5
264
330
1F
100
AcDbEntity
  8
0
  6
Continuous
 62
     7
100
AcDbLine
 10
91.67172016091217
 20
79.8635219753311
 30
0.0
 11
91.67172016087423
 21
79.85058339448592
 31
0.0
  0
LINE
  5
265
330
1F
100
AcDbEntity
  8
0
  6
Continuous
 62
     7
100
AcDbLine
 10
92.37172016091216
 20
77.91352197533111
 30
0.0
 11
92.37172016091216
 21
79.52332836422046
 31
0.0
  0
LINE
  5
266
330
1F
100
AcDbEntity
  8
0
  6
Continuous
 62
     7
100
AcDbLine
 10
92.37172016091216
 20
79.79178410970663
 30
0.0
 11
92.37172016091216
 21
79.8778986046532
 31
0.0
  0
LINE
  5
267
330
1F
100
AcDbEntity
  8
0
  6
Continuous
 62
     7
100
AcDbLine
 10
92.37172016091216
 20
80.4421799080415
 30
0.0
 11
92.39306222820176
 21
80.46352197533109
 31
0.0
  0
LINE
  5
268
330
1F
100
AcDbEntity
  8
0
  6
Continuous
 62
     7
100
AcDbLine
 10
92.37172016091216
 20
75.44914534600899
 30
0.0
 11
92.37172016091216
 21
75.53525984095556
 31
0.0
  0
LINE
  5
269
330
1F
100
AcDbEntity
  8
0
  6
Continuous
 62
     7
100
AcDbLine
 10
92.39306222820176
 20
80.46352197533109
 30
0.0
 11
92.39306222820176
 21
74.8635219753311
 31
0.0
  0
LINE
  5
26A
330
1F
100
AcDbEntity
  8
0
  6
Continuous
 62
     7
100
AcDbLine
 10
91.19306222820174
 20
75.9421799080415
 30
0.0
 11
91.67172016091217
 21
75.46352197533109
 31
0.0
  0
LINE
  5
26B
330
1F
100
AcDbEntity
  8
0
  6
Continuous
 62
     7
100
AcDbLine
 10
91.19306222820174
 20
79.38486404262069
 30
0.0
 11
91.67172016091217
 21
79.8635219753311
 31
0.0
  0
LINE
  5
26C
330
1F
100
AcDbEntity
  8
0
  6
Continuous
 62
     7
100
AcDbLine
 10
82.19306222820174
 20
74.56352197533111
 30
0.0
 11
82.19306222820174
 21
65.66352197533111
 31
0.0
  0
LINE
  5
26D
330
1F
100
AcDbEntity
  8
0
  6
Continuous
 62
     7
100
AcDbLine
 10
70.19306222820177
 20
82.66352197533111
 30
0.0
 11
72.44306222820177
 21
82.66352197533111
 31
0.0
  0
LINE
  5
26E
330
1F
100
AcDbEntity
  8
0
  6
Continuous
 62
     7
100
AcDbLine
 10
72.44306222820177
 20
93.46352197533109
 30
0.0
 11
72.44306222820177
 21
82.66352197533111
 31
0.0
  0
LINE
  5
26F
330
1F
100
AcDbEntity
  8
0
  6
Continuous
 62
     7
100
AcDbLine
 10
75.94306222820177
 20
93.96352197533109
 30
0.0
 11
72.94306222820177
 21
93.96352197533109
 31
0.0
  0
LINE
  5
270
330
1F
100
AcDbEntity
  8
0
  6
Continuous
 62
     7
100
AcDbLine
 10
70.19306222820174
 20
63.16352197533107
 30
0.0
 11
70.19306222820177
 21
82.66352197533111
 31
0.0
  0
LINE
  5
271
330
1F
100
AcDbEntity
  8
0
  6
Continuous
 62
     7
100
AcDbLine
 10
71.53474983302402
 20
63.16352197533108
 30
0.0
 11
71.24306222820178
 21
63.16352197533107
 31
0.0
  0
LINE
  5
272
330
1F
100
AcDbEntity
  8
0
  6
Continuous
 62
     7
100
AcDbLine
 10
71.24306222820178
 20
63.16352197533107
 30
0.0
 11
70.19306222820174
 21
63.16352197533107
 31
0.0
  0
LINE
  5
273
330
1F
100
AcDbEntity
  8
0
  6
Continuous
 62
     7
100
AcDbLine
 10
79.09306222820175
 20
63.66352197533111
 30
0.0
 11
73.19306222820171
 21
63.66352197533111
 31
0.0
  0
LINE
  5
274
330
1F
100
AcDbEntity
  8
0
  6
Continuous
 62
     7
100
AcDbLine
 10
79.19306222820177
 20
82.66352197533111
 30
0.0
 11
82.19306222820177
 21
82.66352197533111
 31
0.0
  0
LINE
  5
275
330
1F
100
AcDbEntity
  8
0
  6
Continuous
 62
     7
100
AcDbLine
 10
88.94306222820174
 20
93.46352197533109
 30
0.0
 11
88.94306222820174
 21
92.46352197533109
 31
0.0
  0
LINE
  5
276
330
1F
100
AcDbEntity
  8
0
  6
Continuous
 62
     7
100
AcDbLine
 10
88.94306222820174
 20
82.66352197533111
 30
0.0
 11
88.94306222820174
 21
92.46352197533109
 31
0.0
  0
LINE
  5
277
330
1F
100
AcDbEntity
  8
0
  6
Continuous
 62
     7
100
AcDbLine
 10
88.93242072552982
 20
92.46352197533109
 30
0.0
 11
88.94306222820174
 21
92.46352197533109
 31
0.0
  0
LINE
  5
278
330
1F
100
AcDbEntity
  8
0
  6
Continuous
 62
     7
100
AcDbLine
 10
79.19306222820177
 20
82.66352197533111
 30
0.0
 11
73.19306222820177
 21
82.66352197533111
 31
0.0
  0
LINE
  5
279
330
1F
100
AcDbEntity
  8
0
  6
Continuous
 62
     7
100
AcDbLine
 10
88.44158690810013
 20
93.96352197533109
 30
0.0
 11
85.44306222820174
 21
93.96352197533109
 31
0.0
  0
LINE
  5
27A
330
1F
100
AcDbEntity
  8
0
  6
Continuous
 62
     7
100
AcDbLine
 10
85.44306222820174
 20
93.96352197533109
 30
0.0
 11
81.69306222820177
 21
93.96352197533109
 31
0.0
  0
LINE
  5
27B
330
1F
100
AcDbEntity
  8
0
  6
Continuous
 62
     7
100
AcDbLine
 10
88.44306222820174
 20
93.96352197533109
 30
0.0
 11
88.44158690810013
 21
93.96352197533109
 31
0.0
  0
LINE
  5
27C
330
1F
100
AcDbEntity
  8
0
  6
Continuous
 62
     7
100
AcDbLine
 10
88.93242072552982
 20
92.46352197533109
 30
0.0
 11
88.93242072552982
 21
93.46352197533109
 31
0.0
  0
LINE
  5
27D
330
1F
100
AcDbEntity
  8
0
  6
Continuous
 62
     7
100
AcDbLine
 10
79.69306222820174
 20
93.46352197533109
 30
0.0
 11
79.69306222820174
 21
93.96352197533109
 31
0.0
  0
LINE
  5
27E
330
1F
100
AcDbEntity
  8
0
  6
Continuous
 62
     7
100
AcDbLine
 10
81.69306222820177
 20
93.96352197533109
 30
0.0
 11
81.69306222820177
 21
93.46352197533109
 31
0.0
  0
LINE
  5
27F
330
1F
100
AcDbEntity
  8
0
  6
Continuous
 62
     7
100
AcDbLine
 10
81.69306222820177
 20
93.46352197533109
 30
0.0
 11
81.69306222820177
 21
92.46352197533109
 31
0.0
  0
LINE
  5
280
330
1F
100
AcDbEntity
  8
0
  6
Continuous
 62
     7
100
AcDbLine
 10
75.94306222820177
 20
93.96352197533109
 30
0.0
 11
79.69306222820174
 21
93.96352197533109
 31
0.0
  0
LINE
  5
281
330
1F
100
AcDbEntity
  8
0
  6
Continuous
 62
     7
100
AcDbLine
 10
81.69306222820177
 20
92.46352197533109
 30
0.0
 11
79.69306222820174
 21
92.46352197533109
 31
0.0
  0
LINE
  5
282
330
1F
100
AcDbEntity
  8
0
  6
Continuous
 62
     7
100
AcDbLine
 10
79.69306222820174
 20
92.46352197533109
 30
0.0
 11
79.69306222820174
 21
93.46352197533109
 31
0.0
  0
LINE
  5
283
330
1F
100
AcDbEntity
  8
0
  6
Continuous
 62
     7
100
AcDbLine
 10
75.44306222820165
 20
63.16352197533107
 30
0.0
 11
75.44306222820165
 21
62.66352197533107
 31
0.0
  0
LINE
  5
284
330
1F
100
AcDbEntity
  8
0
  6
Continuous
 62
     7
100
AcDbLine
 10
80.79390735327149
 20
63.16352197533107
 30
0.0
 11
80.79390735327149
 21
62.66352197533105
 31
0.0
  0
LINE
  5
285
330
1F
100
AcDbEntity
  8
0
  6
Continuous
 62
     7
100
AcDbLine
 10
80.6430622282017
 20
63.16352197533107
 30
0.0
 11
80.6430622282017
 21
62.66352197533105
 31
0.0
  0
LINE
  5
286
330
1F
100
AcDbEntity
  8
0
  6
Continuous
 62
     7
100
AcDbLine
 10
79.19306222820174
 20
77.96352197533109
 30
0.0
 11
79.19306222820177
 21
82.66352197533111
 31
0.0
  0
LINE
  5
287
330
1F
100
AcDbEntity
  8
0
  6
Continuous
 62
     7
100
AcDbLine
 10
80.6430622282017
 20
62.66352197533105
 30
0.0
 11
75.44306222820165
 21
62.66352197533107
 31
0.0
  0
LINE
  5
288
330
1F
100
AcDbEntity
  8
0
  6
Continuous
 62
     7
100
AcDbLine
 10
88.19306222820174
 20
82.66352197533111
 30
0.0
 11
82.19306222820177
 21
82.66352197533111
 31
0.0
  0
LINE
  5
289
330
1F
100
AcDbEntity
  8
0
  6
Continuous
 62
     7
100
AcDbLine
 10
88.19306222820174
 20
82.66352197533111
 30
0.0
 11
88.94306222820174
 21
82.66352197533111
 31
0.0
  0
LINE
  5
28A
330
1F
100
AcDbEntity
  8
0
  6
Continuous
 62
     7
100
AcDbLine
 10
88.94306222820174
 20
82.66352197533111
 30
0.0
 11
91.19306222820174
 21
82.66352197533111
 31
0.0
  0
LINE
  5
28B
330
1F
100
AcDbEntity
  8
0
  6
Continuous
 62
     7
100
AcDbLine
 10
82.19306222820174
 20
77.96352197533109
 30
0.0
 11
82.19306222820177
 21
82.66352197533111
 31
0.0
  0
LINE
  5
28C
330
1F
100
AcDbEntity
  8
0
  6
Continuous
 62
     7
100
AcDbLine
 10
93.33735339820677
 20
78.8302481642889
 30
0.0
 11
93.21191940671105
 21
78.8302481642889
 31
0.0
  0
LINE
  5
28D
330
1F
100
AcDbEntity
  8
0
  6
Continuous
 62
     7
100
AcDbLine
 10
93.43528414063678
 20
78.46765697533111
 30
0.0
 11
93.26332545165852
 21
78.46765697533111
 31
0.0
  0
LINE
  5
28E
330
1F
100
AcDbEntity
  8
0
  6
Continuous
 62
     7
100
AcDbLine
 10
92.37172016091216
 20
77.91352197533111
 30
0.0
 11
91.67172016091217
 21
77.91352197533111
 31
0.0
  0
LINE
  5
28F
330
1F
100
AcDbEntity
  8
0
  6
Continuous
 62
     7
100
AcDbLine
 10
91.67172016091217
 20
77.91352197533111
 30
0.0
 11
91.67172016091217
 21
77.41352197533111
 31
0.0
  0
LINE
  5
290
330
1F
100
AcDbEntity
  8
0
  6
Continuous
 62
     7
100
AcDbLine
 10
93.43528414063678
 20
76.85938697533108
 30
0.0
 11
93.26332545165852
 21
76.85938697533108
 31
0.0
  0
LINE
  5
291
330
1F
100
AcDbEntity
  8
0
  6
Continuous
 62
     7
100
AcDbLine
 10
93.33735339820677
 20
76.49679578637331
 30
0.0
 11
93.08923182153455
 21
76.49679578637331
 31
0.0
  0
LINE
  5
292
330
1F
100
AcDbEntity
  8
0
  6
Continuous
 62
     7
100
AcDbLine
 10
91.67172016091217
 20
77.41352197533111
 30
0.0
 11
92.37172016091216
 21
77.41352197533111
 31
0.0
  0
LINE
  5
293
330
1F
100
AcDbEntity
  8
0
  6
Continuous
 62
     7
100
AcDbLine
 10
72.44306222820177
 20
82.66352197533111
 30
0.0
 11
73.19306222820177
 21
82.66352197533111
 31
0.0
  0
LINE
  5
294
330
1F
100
AcDbEntity
  8
0
  6
Continuous
 62
     7
100
AcDbLine
 10
80.6430622282017
 20
63.16352197533107
 30
0.0
 11
80.79390735327149
 21
63.16352197533107
 31
0.0
  0
LINE
  5
295
330
1F
100
AcDbEntity
  8
0
  6
Continuous
 62
     7
100
AcDbLine
 10
80.79390735327149
 20
63.16352197533107
 30
0.0
 11
82.29306222820176
 21
63.16352197533107
 31
0.0
  0
LINE
  5
296
330
1F
100
AcDbEntity
  8
0
  6
Continuous
 62
     7
100
AcDbLine
 10
79.09306222820175
 20
63.16352197533107
 30
0.0
 11
80.6430622282017
 21
63.16352197533107
 31
0.0
  0
LINE
  5
297
330
1F
100
AcDbEntity
  8
0
  6
Continuous
 62
     7
100
AcDbLine
 10
79.09306222820175
 20
63.66352197533111
 30
0.0
 11
79.09306222820175
 21
63.16352197533107
 31
0.0
  0
LINE
  5
298
330
1F
100
AcDbEntity
  8
0
  6
Continuous
 62
     7
100
AcDbLine
 10
79.19306222820174
 20
65.66352197533111
 30
0.0
 11
82.19306222820174
 21
65.66352197533111
 31
0.0
  0
LINE
  5
299
330
1F
100
AcDbEntity
  8
0
  6
Continuous
 62
     7
100
AcDbLine
 10
79.19306222820174
 20
65.66352197533111
 30
0.0
 11
79.09306222820175
 21
65.66352197533111
 31
0.0
  0
LINE
  5
29A
330
1F
100
AcDbEntity
  8
0
  6
Continuous
 62
     7
100
AcDbLine
 10
82.29306222820176
 20
65.66352197533111
 30
0.0
 11
82.19306222820174
 21
65.66352197533111
 31
0.0
  0
LINE
  5
29B
330
1F
100
AcDbEntity
  8
0
  6
Continuous
 62
     7
100
AcDbLine
 10
82.19306222820174
 20
74.56352197533111
 30
0.0
 11
79.19306222820174
 21
74.56352197533111
 31
0.0
  0
LINE
  5
29C
330
1F
100
AcDbEntity
  8
0
  6
Continuous
 62
     7
100
AcDbLine
 10
92.37172016091216
 20
74.7733251565743
 30
0.0
 11
92.37172016091216
 21
74.77535886472744
 31
0.0
  0
LINE
  5
29D
330
1F
100
AcDbEntity
  8
0
  6
Continuous
 62
     7
100
AcDbLine
 10
92.37172016091216
 20
74.77535886472744
 30
0.0
 11
92.37172016091216
 21
75.44914534600899
 31
0.0
  0
LINE
  5
29E
330
1F
100
AcDbEntity
  8
0
  6
Continuous
 62
     7
100
AcDbLine
 10
92.56467527788254
 20
75.42108746862995
 30
0.0
 11
92.56467527788254
 21
75.98677289357919
 31
0.0
  0
LINE
  5
29F
330
1F
100
AcDbEntity
  8
0
  6
Continuous
 62
     7
100
AcDbLine
 10
92.74306222820175
 20
75.98677289357919
 30
0.0
 11
92.56467527788254
 21
75.98677289357919
 31
0.0
  0
LINE
  5
2A0
330
1F
100
AcDbEntity
  8
0
  6
Continuous
 62
     7
100
AcDbLine
 10
92.74306222820175
 20
74.8635219753311
 30
0.0
 11
92.74306222820175
 21
75.42108746862995
 31
0.0
  0
LINE
  5
2A1
330
1F
100
AcDbEntity
  8
0
  6
Continuous
 62
     7
100
AcDbLine
 10
91.67172016087363
 20
75.47914880358245
 30
0.0
 11
91.67172016087423
 21
75.47646055617626
 31
0.0
  0
LINE
  5
2A2
330
1F
100
AcDbEntity
  8
0
  6
Continuous
 62
     7
100
AcDbLine
 10
91.67172016087423
 20
75.47646055617626
 30
0.0
 11
91.67172016091217
 21
75.46352197533109
 31
0.0
  0
LINE
  5
2A3
330
1F
100
AcDbEntity
  8
0
  6
Continuous
 62
     7
100
AcDbLine
 10
92.74306222820175
 20
75.42108746862995
 30
0.0
 11
92.56467527788254
 21
75.42108746862995
 31
0.0
  0
LINE
  5
2A4
330
1F
100
AcDbEntity
  8
0
  6
Continuous
 62
     7
100
AcDbLine
 10
92.74306222820175
 20
74.8635219753311
 30
0.0
 11
92.39306222820176
 21
74.8635219753311
 31
0.0
  0
LINE
  5
2A5
330
1F
100
AcDbEntity
  8
0
  6
Continuous
 62
     7
100
AcDbLine
 10
92.37172016091216
 20
74.88486404262069
 30
0.0
 11
92.39306222820176
 21
74.8635219753311
 31
0.0
  0
LINE
  5
2A6
330
1F
100
AcDbEntity
  8
0
  6
Continuous
 62
     7
100
AcDbLine
 10
79.09306222820175
 20
74.66352197533111
 30
0.0
 11
82.29306222820179
 21
74.66352197533111
 31
0.0
  0
LINE
  5
2A7
330
1F
100
AcDbEntity
  8
1
  6
DOT_CENTER
 62
     7
100
AcDbLine
 10
78.04306222820168
 20
63.16352197533107
 30
0.0
 11
78.04306222820168
 21
62.66352197533105
 31
0.0
  0
LINE
  5
2A8
330
1F
100
AcDbEntity
  8
1
  6
DOT_CENTER
 62
     7
100
AcDbLine
 10
91.19306222820174
 20
77.66352197533111
 30
0.0
 11
91.67172016091217
 21
77.66352197533111
 31
0.0
  0
LINE
  5
2A9
330
1F
100
AcDbEntity
  8
1
  6
DOT_CENTER
 62
     7
100
AcDbLine
 10
92.74306222820178
 20
77.66352197533111
 30
0.0
 11
92.37172016091216
 21
77.66352197533111
 31
0.0
  0
LINE
  5
2AA
330
1F
100
AcDbEntity
  8
1
  6
DOT_CENTER
 62
     7
100
AcDbLine
 10
83.39390735327152
 20
63.16352197533107
 30
0.0
 11
83.39390735327152
 21
62.66352197533105
 31
0.0
  0
LINE
  5
2AB
330
1F
100
AcDbEntity
  8
0
  6
Continuous
 62
     7
100
AcDbLine
 10
29.19306180127362
 20
33.26352159747874
 30
0.0
 11
29.19306180127359
 21
39.26352159747874
 31
0.0
  0
LINE
  5
2AC
330
1F
100
AcDbEntity
  8
0
  6
Continuous
 62
     7
100
AcDbLine
 10
31.44306180127362
 20
41.76352159747876
 30
0.0
 11
31.44306180127362
 21
45.51352159747874
 31
0.0
  0
LINE
  5
2AD
330
1F
100
AcDbEntity
  8
0
  6
Continuous
 62
     7
100
AcDbLine
 10
31.44306180127362
 20
41.76352159747876
 30
0.0
 11
31.44306180127362
 21
39.76352159747873
 31
0.0
  0
LINE
  5
2AE
330
1F
100
AcDbEntity
  8
0
  6
Continuous
 62
     7
100
AcDbLine
 10
30.3930618012736
 20
42.26352159747874
 30
0.0
 11
30.3930618012736
 21
39.26352159747874
 31
0.0
  0
LINE
  5
2AF
330
1F
100
AcDbEntity
  8
0
  6
Continuous
 62
     7
100
AcDbLine
 10
29.19306180127359
 20
42.26352159747874
 30
0.0
 11
29.19306180127362
 21
48.26352159747874
 31
0.0
  0
LINE
  5
2B0
330
1F
100
AcDbEntity
  8
0
  6
Continuous
 62
     7
100
AcDbLine
 10
29.19306180127359
 20
39.26352159747874
 30
0.0
 11
29.19306180127359
 21
42.26352159747874
 31
0.0
  0
LINE
  5
2B1
330
1F
100
AcDbEntity
  8
0
  6
Continuous
 62
     7
100
AcDbLine
 10
29.6930618012735
 20
42.26352159747874
 30
0.0
 11
29.6930618012735
 21
39.26352159747874
 31
0.0
  0
LINE
  5
2B2
330
1F
100
AcDbEntity
  8
0
  6
Continuous
 62
     7
100
AcDbLine
 10
30.19306180127362
 20
42.26352159747874
 30
0.0
 11
30.19306180127362
 21
39.26352159747874
 31
0.0
  0
LINE
  5
2B3
330
1F
100
AcDbEntity
  8
0
  6
Continuous
 62
     7
100
AcDbLine
 10
31.44306180127362
 20
36.01352159747874
 30
0.0
 11
31.44306180127362
 21
39.76352159747873
 31
0.0
  0
LINE
  5
2B4
330
1F
100
AcDbEntity
  8
0
  6
Continuous
 62
     7
100
AcDbLine
 10
34.67033982356682
 20
32.52416310015066
 30
0.0
 11
34.8489887230825
 21
33.01499691758036
 31
0.0
  0
LINE
  5
2B5
330
1F
100
AcDbEntity
  8
0
  6
Continuous
 62
     7
100
AcDbLine
 10
33.24618680127361
 20
35.32102159747875
 30
0.0
 11
33.24618680127361
 21
35.15852159747875
 31
0.0
  0
LINE
  5
2B6
330
1F
100
AcDbEntity
  8
0
  6
Continuous
 62
     7
100
AcDbLine
 10
33.24618680127361
 20
35.15852159747875
 30
0.0
 11
33.40868680127363
 21
35.15852159747875
 31
0.0
  0
LINE
  5
2B7
330
1F
100
AcDbEntity
  8
0
  6
Continuous
 62
     7
100
AcDbLine
 10
33.40868680127363
 20
35.32102159747875
 30
0.0
 11
33.24618680127361
 21
35.32102159747875
 31
0.0
  0
LINE
  5
2B8
330
1F
100
AcDbEntity
  8
0
  6
Continuous
 62
     7
100
AcDbLine
 10
33.40868680127363
 20
34.31352159747875
 30
0.0
 11
33.58743680127361
 21
34.31352159747875
 31
0.0
  0
LINE
  5
2B9
330
1F
100
AcDbEntity
  8
0
  6
Continuous
 62
     7
100
AcDbLine
 10
33.40868680127363
 20
35.15852159747875
 30
0.0
 11
33.40868680127363
 21
34.31352159747875
 31
0.0
  0
LINE
  5
2BA
330
1F
100
AcDbEntity
  8
0
  6
Continuous
 62
     7
100
AcDbLine
 10
33.40868680127363
 20
35.61352159747875
 30
0.0
 11
33.40868680127363
 21
35.32102159747875
 31
0.0
  0
LINE
  5
2BB
330
1F
100
AcDbEntity
  8
0
  6
Continuous
 62
     7
100
AcDbLine
 10
33.58743680127361
 20
35.32102159747875
 30
0.0
 11
33.58743680127361
 21
35.61352159747875
 31
0.0
  0
LINE
  5
2BC
330
1F
100
AcDbEntity
  8
0
  6
Continuous
 62
     7
100
AcDbLine
 10
33.58743680127361
 20
35.61352159747875
 30
0.0
 11
33.40868680127363
 21
35.61352159747875
 31
0.0
  0
LINE
  5
2BD
330
1F
100
AcDbEntity
  8
0
  6
Continuous
 62
     7
100
AcDbLine
 10
36.47556884655543
 20
32.51352159747874
 30
0.0
 11
34.94306180127362
 21
32.51352159747874
 31
0.0
  0
LINE
  5
2BE
330
1F
100
AcDbEntity
  8
0
  6
Continuous
 62
     7
100
AcDbLine
 10
33.58743680127361
 20
34.60602159747876
 30
0.0
 11
33.58743680127361
 21
35.15852159747875
 31
0.0
  0
LINE
  5
2BF
330
1F
100
AcDbEntity
  8
0
  6
Continuous
 62
     7
100
AcDbLine
 10
33.58743680127361
 20
35.15852159747875
 30
0.0
 11
33.96118680127361
 21
35.15852159747875
 31
0.0
  0
LINE
  5
2C0
330
1F
100
AcDbEntity
  8
0
  6
Continuous
 62
     7
100
AcDbLine
 10
34.13993680127362
 20
35.14227159747874
 30
0.0
 11
34.13993680127362
 21
35.32102159747875
 31
0.0
  0
LINE
  5
2C1
330
1F
100
AcDbEntity
  8
0
  6
Continuous
 62
     7
100
AcDbLine
 10
34.13993680127362
 20
35.32102159747875
 30
0.0
 11
33.58743680127361
 21
35.32102159747875
 31
0.0
  0
LINE
  5
2C2
330
1F
100
AcDbEntity
  8
0
  6
Continuous
 62
     7
100
AcDbLine
 10
33.58743680127361
 20
34.31352159747875
 30
0.0
 11
34.13993680127362
 21
35.14227159747874
 31
0.0
  0
LINE
  5
2C3
330
1F
100
AcDbEntity
  8
0
  6
Continuous
 62
     7
100
AcDbLine
 10
33.96118680127361
 20
35.15852159747875
 30
0.0
 11
33.58743680127361
 21
34.60602159747876
 31
0.0
  0
LINE
  5
2C4
330
1F
100
AcDbEntity
  8
0
  6
Continuous
 62
     7
100
AcDbLine
 10
47.19306180127362
 20
30.26352159747873
 30
0.0
 11
32.19306180127362
 21
30.26352159747875
 31
0.0
  0
LINE
  5
2C5
330
1F
100
AcDbEntity
  8
0
  6
Continuous
 62
     7
100
AcDbLine
 10
40.49719680127362
 20
28.02129968504369
 30
0.0
 11
40.49719680127362
 21
28.19325837402196
 31
0.0
  0
LINE
  5
2C6
330
1F
100
AcDbEntity
  8
0
  6
Continuous
 62
     7
100
AcDbLine
 10
38.88892680127361
 20
28.02129968504369
 30
0.0
 11
38.88892680127361
 21
28.19325837402196
 31
0.0
  0
LINE
  5
2C7
330
1F
100
AcDbEntity
  8
0
  6
Continuous
 62
     7
100
AcDbLine
 10
42.49306180127363
 20
28.71352159747872
 30
0.0
 11
42.49306180127363
 21
29.06352159747872
 31
0.0
  0
LINE
  5
2C8
330
1F
100
AcDbEntity
  8
0
  6
Continuous
 62
     7
100
AcDbLine
 10
41.36981088302554
 20
28.71352159747872
 30
0.0
 11
41.36981088302554
 21
28.89190854779792
 31
0.0
  0
LINE
  5
2C9
330
1F
100
AcDbEntity
  8
0
  6
Continuous
 62
     7
100
AcDbLine
 10
41.93549630797477
 20
28.71352159747872
 30
0.0
 11
41.93549630797477
 21
28.89190854779792
 31
0.0
  0
LINE
  5
2CA
330
1F
100
AcDbEntity
  8
0
  6
Continuous
 62
     7
100
AcDbLine
 10
40.85978799023141
 20
28.36735200414595
 30
0.0
 11
40.85978799023141
 21
28.11923042747371
 31
0.0
  0
LINE
  5
2CB
330
1F
100
AcDbEntity
  8
0
  6
Continuous
 62
     7
100
AcDbLine
 10
38.52633561231582
 20
28.11923042747371
 30
0.0
 11
38.52633561231582
 21
28.24466441896943
 31
0.0
  0
LINE
  5
2CC
330
1F
100
AcDbEntity
  8
0
  6
Continuous
 62
     7
100
AcDbLine
 10
36.89306180127363
 20
28.71352159747872
 30
0.0
 11
36.89306180127363
 21
29.06352159747872
 31
0.0
  0
LINE
  5
2CD
330
1F
100
AcDbEntity
  8
0
  6
Continuous
 62
     7
100
AcDbLine
 10
36.89306180127363
 20
28.71352159747872
 30
0.0
 11
41.36981088302554
 21
28.71352159747872
 31
0.0
  0
LINE
  5
2CE
330
1F
100
AcDbEntity
  8
0
  6
Continuous
 62
     7
100
AcDbLine
 10
41.93549630797477
 20
28.71352159747872
 30
0.0
 11
42.49306180127363
 21
28.71352159747872
 31
0.0
  0
LINE
  5
2CF
330
1F
100
AcDbEntity
  8
0
  6
Continuous
 62
     7
100
AcDbLine
 10
41.36981088302554
 20
28.89190854779792
 30
0.0
 11
41.93549630797477
 21
28.89190854779792
 31
0.0
  0
LINE
  5
2D0
330
1F
100
AcDbEntity
  8
0
  6
Continuous
 62
     7
100
AcDbLine
 10
42.47171973398403
 20
29.08486366476832
 30
0.0
 11
42.49306180127363
 21
29.06352159747872
 31
0.0
  0
LINE
  5
2D1
330
1F
100
AcDbEntity
  8
0
  6
Continuous
 62
     7
100
AcDbLine
 10
42.49306180127363
 20
29.06352159747872
 30
0.0
 11
36.89306180127363
 21
29.06352159747872
 31
0.0
  0
LINE
  5
2D2
330
1F
100
AcDbEntity
  8
0
  6
Continuous
 62
     7
100
AcDbLine
 10
36.91440386856323
 20
29.08486366476832
 30
0.0
 11
36.89306180127363
 21
29.06352159747872
 31
0.0
  0
LINE
  5
2D3
330
1F
100
AcDbEntity
  8
0
  6
Continuous
 62
     7
100
AcDbLine
 10
39.93131030357341
 20
29.08486366476832
 30
0.0
 11
39.93131030356389
 21
29.78486366480626
 31
0.0
  0
LINE
  5
2D4
330
1F
100
AcDbEntity
  8
0
  6
Continuous
 62
     7
100
AcDbLine
 10
39.43131030358222
 20
29.78486366480687
 30
0.0
 11
39.43131030357341
 21
29.08486366476832
 31
0.0
  0
LINE
  5
2D5
330
1F
100
AcDbEntity
  8
0
  6
Continuous
 62
     7
100
AcDbLine
 10
37.8204870648446
 20
29.08486366476832
 30
0.0
 11
39.43131030357341
 21
29.08486366476832
 31
0.0
  0
LINE
  5
2D6
330
1F
100
AcDbEntity
  8
0
  6
Continuous
 62
     7
100
AcDbLine
 10
41.82132393564916
 20
29.08486366476832
 30
0.0
 11
41.9074384305957
 21
29.08486366476832
 31
0.0
  0
LINE
  5
2D7
330
1F
100
AcDbEntity
  8
0
  6
Continuous
 62
     7
100
AcDbLine
 10
41.9074384305957
 20
29.08486366476832
 30
0.0
 11
42.47171973398403
 21
29.08486366476832
 31
0.0
  0
LINE
  5
2D8
330
1F
100
AcDbEntity
  8
0
  6
Continuous
 62
     7
100
AcDbLine
 10
42.47171973398403
 20
29.08486366476832
 30
0.0
 11
42.58226584391235
 21
29.08486366476832
 31
0.0
  0
LINE
  5
2D9
330
1F
100
AcDbEntity
  8
0
  6
Continuous
 62
     7
100
AcDbLine
 10
39.93131030357341
 20
29.08486366476832
 30
0.0
 11
41.552868190163
 21
29.08486366476832
 31
0.0
  0
LINE
  5
2DA
330
1F
100
AcDbEntity
  8
0
  6
Continuous
 62
     7
100
AcDbLine
 10
37.46795052409078
 20
29.08486366476832
 30
0.0
 11
37.55410977931311
 21
29.08486366476832
 31
0.0
  0
LINE
  5
2DB
330
1F
100
AcDbEntity
  8
0
  6
Continuous
 62
     7
100
AcDbLine
 10
36.80385775863488
 20
29.08486366476832
 30
0.0
 11
36.91440386856323
 21
29.08486366476832
 31
0.0
  0
LINE
  5
2DC
330
1F
100
AcDbEntity
  8
0
  6
Continuous
 62
     7
100
AcDbLine
 10
36.91440386856323
 20
29.08486366476832
 30
0.0
 11
37.46795052409078
 21
29.08486366476832
 31
0.0
  0
LINE
  5
2DD
330
1F
100
AcDbEntity
  8
0
  6
Continuous
 62
     7
100
AcDbLine
 10
41.89306180127363
 20
29.78486366476833
 30
0.0
 11
41.87881110071305
 21
29.78486366476833
 31
0.0
  0
LINE
  5
2DE
330
1F
100
AcDbEntity
  8
0
  6
Continuous
 62
     7
100
AcDbLine
 10
41.4101816411837
 20
29.78486366476833
 30
0.0
 11
41.32382653147315
 21
29.78486366476833
 31
0.0
  0
LINE
  5
2DF
330
1F
100
AcDbEntity
  8
0
  6
Continuous
 62
     7
100
AcDbLine
 10
41.32382653147315
 20
29.78486366476833
 30
0.0
 11
41.05528413673653
 21
29.78486366481696
 31
0.0
  0
LINE
  5
2E0
330
1F
100
AcDbEntity
  8
0
  6
Continuous
 62
     7
100
AcDbLine
 10
41.4144038685632
 20
30.26352159747875
 30
0.0
 11
41.89306180127363
 21
29.78486366476833
 31
0.0
  0
LINE
  5
2E1
330
1F
100
AcDbEntity
  8
0
  6
Continuous
 62
     7
100
AcDbLine
 10
39.93131030356389
 20
29.78486366480626
 30
0.0
 11
39.43131030358222
 21
29.78486366480687
 31
0.0
  0
LINE
  5
2E2
330
1F
100
AcDbEntity
  8
0
  6
Continuous
 62
     7
100
AcDbLine
 10
38.05196927085075
 20
29.78486366476833
 30
0.0
 11
37.96553457753313
 21
29.78486366481696
 31
0.0
  0
LINE
  5
2E3
330
1F
100
AcDbEntity
  8
0
  6
Continuous
 62
     7
100
AcDbLine
 10
38.31774385425658
 20
29.78486366476833
 30
0.0
 11
38.05196927085075
 21
29.78486366476833
 31
0.0
  0
LINE
  5
2E4
330
1F
100
AcDbEntity
  8
0
  6
Continuous
 62
     7
100
AcDbLine
 10
37.50731250183418
 20
29.78486366476833
 30
0.0
 11
37.49306180127363
 21
29.78486366476833
 31
0.0
  0
LINE
  5
2E5
330
1F
100
AcDbEntity
  8
0
  6
Continuous
 62
     7
100
AcDbLine
 10
40.73494118694117
 20
38.49097075190433
 30
0.0
 11
40.72672368413811
 21
38.51354815530006
 31
0.0
  0
LINE
  5
2E6
330
1F
100
AcDbEntity
  8
0
  6
Continuous
 62
     7
100
AcDbLine
 10
38.65118241560603
 20
38.49097075190433
 30
0.0
 11
38.65939991840909
 21
38.51354815530007
 31
0.0
  0
LINE
  5
2E7
330
1F
100
AcDbEntity
  8
0
  6
Continuous
 62
     7
100
AcDbLine
 10
37.97171973398403
 20
30.26352159747875
 30
0.0
 11
37.49306180127363
 21
29.78486366476833
 31
0.0
  0
LINE
  5
2E8
330
1F
100
AcDbEntity
  8
0
  6
Continuous
 62
     7
100
AcDbLine
 10
42.72856963885866
 20
33.01352159747874
 30
0.0
 11
40.73494118694117
 21
38.49097075190433
 31
0.0
  0
LINE
  5
2E9
330
1F
100
AcDbEntity
  8
0
  6
Continuous
 62
     7
100
AcDbLine
 10
36.65755396368851
 20
33.01352159747874
 30
0.0
 11
38.65118241560603
 21
38.49097075190433
 31
0.0
  0
LINE
  5
2EA
330
1F
100
AcDbEntity
  8
0
  6
Continuous
 62
     7
100
AcDbLine
 10
47.94306180127362
 20
39.76352159747873
 30
0.0
 11
47.94306180127362
 21
41.76352159747876
 31
0.0
  0
LINE
  5
2EB
330
1F
100
AcDbEntity
  8
0
  6
Continuous
 62
     7
100
AcDbLine
 10
48.9930618012736
 20
42.26352159747874
 30
0.0
 11
50.19306180127359
 21
42.26352159747874
 31
0.0
  0
LINE
  5
2EC
330
1F
100
AcDbEntity
  8
0
  6
Continuous
 62
     7
100
AcDbLine
 10
50.19306180127359
 20
39.26352159747874
 30
0.0
 11
48.9930618012736
 21
39.26352159747874
 31
0.0
  0
LINE
  5
2ED
330
1F
100
AcDbEntity
  8
0
  6
Continuous
 62
     7
100
AcDbLine
 10
49.19306180127359
 20
42.26352159747874
 30
0.0
 11
49.19306180127359
 21
39.26352159747874
 31
0.0
  0
LINE
  5
2EE
330
1F
100
AcDbEntity
  8
0
  6
Continuous
 62
     7
100
AcDbLine
 10
48.9930618012736
 20
42.26352159747874
 30
0.0
 11
48.9930618012736
 21
39.26352159747874
 31
0.0
  0
LINE
  5
2EF
330
1F
100
AcDbEntity
  8
0
  6
Continuous
 62
     7
100
AcDbLine
 10
44.5371348794647
 20
33.01499691758036
 30
0.0
 11
42.1785638479621
 21
39.49511756881358
 31
0.0
  0
LINE
  5
2F0
330
1F
100
AcDbEntity
  8
0
  6
Continuous
 62
     7
100
AcDbLine
 10
33.35181180127361
 20
46.56352159747874
 30
0.0
 11
33.4330618012736
 21
46.49852159747874
 31
0.0
  0
LINE
  5
2F1
330
1F
100
AcDbEntity
  8
0
  6
Continuous
 62
     7
100
AcDbLine
 10
33.4330618012736
 20
46.49852159747874
 30
0.0
 11
33.4005618012736
 21
46.46602159747874
 31
0.0
  0
LINE
  5
2F2
330
1F
100
AcDbEntity
  8
0
  6
Continuous
 62
     7
100
AcDbLine
 10
33.3355618012736
 20
46.14102159747874
 30
0.0
 11
33.4005618012736
 21
46.04352159747876
 31
0.0
  0
LINE
  5
2F3
330
1F
100
AcDbEntity
  8
0
  6
Continuous
 62
     7
100
AcDbLine
 10
33.92056180127361
 20
46.90477159747874
 30
0.0
 11
33.93681180127362
 21
46.83977159747875
 31
0.0
  0
LINE
  5
2F4
330
1F
100
AcDbEntity
  8
0
  6
Continuous
 62
     7
100
AcDbLine
 10
33.44931180127361
 20
46.83977159747875
 30
0.0
 11
33.46556180127359
 21
46.90477159747874
 31
0.0
  0
LINE
  5
2F5
330
1F
100
AcDbEntity
  8
0
  6
Continuous
 62
     7
100
AcDbLine
 10
33.4005618012736
 20
46.04352159747876
 30
0.0
 11
33.46556180127359
 21
45.97852159747875
 31
0.0
  0
LINE
  5
2F6
330
1F
100
AcDbEntity
  8
0
  6
Continuous
 62
     7
100
AcDbLine
 10
33.4005618012736
 20
46.46602159747874
 30
0.0
 11
33.33556180127363
 21
46.36852159747876
 31
0.0
  0
LINE
  5
2F7
330
1F
100
AcDbEntity
  8
0
  6
Continuous
 62
     7
100
AcDbLine
 10
33.96931180127362
 20
47.13227159747875
 30
0.0
 11
33.87181180127359
 21
47.18102159747875
 31
0.0
  0
LINE
  5
2F8
330
1F
100
AcDbEntity
  8
0
  6
Continuous
 62
     7
100
AcDbLine
 10
33.79056180127361
 20
46.09227159747874
 30
0.0
 11
33.72556180127361
 21
46.07602159747874
 31
0.0
  0
LINE
  5
2F9
330
1F
100
AcDbEntity
  8
0
  6
Continuous
 62
     7
100
AcDbLine
 10
33.82306180127361
 20
45.92977159747875
 30
0.0
 11
33.92056180127361
 21
45.97852159747875
 31
0.0
  0
LINE
  5
2FA
330
1F
100
AcDbEntity
  8
0
  6
Continuous
 62
     7
100
AcDbLine
 10
33.7418118012736
 20
45.91352159747875
 30
0.0
 11
33.82306180127361
 21
45.92977159747875
 31
0.0
  0
LINE
  5
2FB
330
1F
100
AcDbEntity
  8
0
  6
Continuous
 62
     7
100
AcDbLine
 10
33.6443118012736
 20
45.91352159747875
 30
0.0
 11
33.7418118012736
 21
45.91352159747875
 31
0.0
  0
LINE
  5
2FC
330
1F
100
AcDbEntity
  8
0
  6
Continuous
 62
     7
100
AcDbLine
 10
36.59306180127362
 20
49.01352159747874
 30
0.0
 11
36.59306180127362
 21
48.51352159747874
 31
0.0
  0
LINE
  5
2FD
330
1F
100
AcDbEntity
  8
0
  6
Continuous
 62
     7
100
AcDbLine
 10
42.79306180127361
 20
49.01352159747874
 30
0.0
 11
42.79306180127361
 21
48.51352159747874
 31
0.0
  0
LINE
  5
2FE
330
1F
100
AcDbEntity
  8
0
  6
Continuous
 62
     7
100
AcDbLine
 10
42.79306180127361
 20
49.01352159747874
 30
0.0
 11
44.44306180127362
 21
49.01352159747874
 31
0.0
  0
LINE
  5
2FF
330
1F
100
AcDbEntity
  8
0
  6
Continuous
 62
     7
100
AcDbLine
 10
34.94306180127362
 20
49.01352159747874
 30
0.0
 11
36.59306180127362
 21
49.01352159747874
 31
0.0
  0
LINE
  5
300
330
1F
100
AcDbEntity
  8
0
  6
Continuous
 62
     7
100
AcDbLine
 10
36.59306180127362
 20
48.51352159747874
 30
0.0
 11
36.59306180127362
 21
46.06352159747874
 31
0.0
  0
LINE
  5
301
330
1F
100
AcDbEntity
  8
0
  6
Continuous
 62
     7
100
AcDbLine
 10
42.79306180127361
 20
46.06352159747874
 30
0.0
 11
42.79306180127361
 21
48.51352159747874
 31
0.0
  0
LINE
  5
302
330
1F
100
AcDbEntity
  8
0
  6
Continuous
 62
     7
100
AcDbLine
 10
34.13181180127361
 20
46.85602159747874
 30
0.0
 11
34.09931180127362
 21
46.96977159747874
 31
0.0
  0
LINE
  5
303
330
1F
100
AcDbEntity
  8
0
  6
Continuous
 62
     7
100
AcDbLine
 10
34.06681180127362
 20
46.28727159747875
 30
0.0
 11
33.88806180127361
 21
46.28727159747875
 31
0.0
  0
LINE
  5
304
330
1F
100
AcDbEntity
  8
0
  6
Continuous
 62
     7
100
AcDbLine
 10
34.06681180127362
 20
46.22227159747877
 30
0.0
 11
34.06681180127362
 21
46.28727159747875
 31
0.0
  0
LINE
  5
305
330
1F
100
AcDbEntity
  8
0
  6
Continuous
 62
     7
100
AcDbLine
 10
34.0505618012736
 20
46.14102159747874
 30
0.0
 11
34.06681180127362
 21
46.22227159747877
 31
0.0
  0
LINE
  5
306
330
1F
100
AcDbEntity
  8
0
  6
Continuous
 62
     7
100
AcDbLine
 10
33.9855618012736
 20
46.04352159747874
 30
0.0
 11
34.0505618012736
 21
46.14102159747874
 31
0.0
  0
LINE
  5
307
330
1F
100
AcDbEntity
  8
0
  6
Continuous
 62
     7
100
AcDbLine
 10
33.92056180127361
 20
45.97852159747875
 30
0.0
 11
33.9855618012736
 21
46.04352159747874
 31
0.0
  0
LINE
  5
308
330
1F
100
AcDbEntity
  8
0
  6
Continuous
 62
     7
100
AcDbLine
 10
45.45743680127362
 20
45.97852159747873
 30
0.0
 11
45.55493680127361
 21
45.92977159747875
 31
0.0
  0
LINE
  5
309
330
1F
100
AcDbEntity
  8
0
  6
Continuous
 62
     7
100
AcDbLine
 10
45.55493680127361
 20
45.92977159747875
 30
0.0
 11
45.63618680127362
 21
45.91352159747875
 31
0.0
  0
LINE
  5
30A
330
1F
100
AcDbEntity
  8
0
  6
Continuous
 62
     7
100
AcDbLine
 10
45.73368680127362
 20
45.91352159747875
 30
0.0
 11
45.81493680127363
 21
45.92977159747875
 31
0.0
  0
LINE
  5
30B
330
1F
100
AcDbEntity
  8
0
  6
Continuous
 62
     7
100
AcDbLine
 10
45.63618680127362
 20
45.91352159747875
 30
0.0
 11
45.73368680127362
 21
45.91352159747875
 31
0.0
  0
LINE
  5
30C
330
1F
100
AcDbEntity
  8
0
  6
Continuous
 62
     7
100
AcDbLine
 10
45.39243680127359
 20
46.04352159747876
 30
0.0
 11
45.45743680127362
 21
45.97852159747873
 31
0.0
  0
LINE
  5
30D
330
1F
100
AcDbEntity
  8
0
  6
Continuous
 62
     7
100
AcDbLine
 10
45.83118680127362
 20
46.12477159747876
 30
0.0
 11
45.78243680127363
 21
46.09227159747874
 31
0.0
  0
LINE
  5
30E
330
1F
100
AcDbEntity
  8
0
  6
Continuous
 62
     7
100
AcDbLine
 10
45.78243680127363
 20
46.09227159747874
 30
0.0
 11
45.71743680127361
 21
46.07602159747874
 31
0.0
  0
LINE
  5
30F
330
1F
100
AcDbEntity
  8
0
  6
Continuous
 62
     7
100
AcDbLine
 10
45.71743680127361
 20
46.07602159747874
 30
0.0
 11
45.65243680127361
 21
46.07602159747874
 31
0.0
  0
LINE
  5
310
330
1F
100
AcDbEntity
  8
0
  6
Continuous
 62
     7
100
AcDbLine
 10
45.65243680127361
 20
46.07602159747874
 30
0.0
 11
45.58743680127361
 21
46.09227159747873
 31
0.0
  0
LINE
  5
311
330
1F
100
AcDbEntity
  8
0
  6
Continuous
 62
     7
100
AcDbLine
 10
45.58743680127361
 20
46.09227159747873
 30
0.0
 11
45.53868680127363
 21
46.12477159747873
 31
0.0
  0
LINE
  5
312
330
1F
100
AcDbEntity
  8
0
  6
Continuous
 62
     7
100
AcDbLine
 10
46.04243680127362
 20
46.14102159747874
 30
0.0
 11
46.05868680127361
 21
46.22227159747875
 31
0.0
  0
LINE
  5
313
330
1F
100
AcDbEntity
  8
0
  6
Continuous
 62
     7
100
AcDbLine
 10
45.8799368012736
 20
46.22227159747875
 30
0.0
 11
45.86368680127362
 21
46.17352159747874
 31
0.0
  0
LINE
  5
314
330
1F
100
AcDbEntity
  8
0
  6
Continuous
 62
     7
100
AcDbLine
 10
45.8799368012736
 20
46.28727159747875
 30
0.0
 11
45.8799368012736
 21
46.22227159747875
 31
0.0
  0
LINE
  5
315
330
1F
100
AcDbEntity
  8
0
  6
Continuous
 62
     7
100
AcDbLine
 10
45.5061868012736
 20
46.17352159747874
 30
0.0
 11
45.48993680127362
 21
46.22227159747875
 31
0.0
  0
LINE
  5
316
330
1F
100
AcDbEntity
  8
0
  6
Continuous
 62
     7
100
AcDbLine
 10
33.33556180127363
 20
46.36852159747876
 30
0.0
 11
33.31931180127361
 21
46.28727159747875
 31
0.0
  0
LINE
  5
317
330
1F
100
AcDbEntity
  8
0
  6
Continuous
 62
     7
100
AcDbLine
 10
33.31931180127361
 20
46.28727159747875
 30
0.0
 11
33.31931180127361
 21
46.22227159747875
 31
0.0
  0
LINE
  5
318
330
1F
100
AcDbEntity
  8
0
  6
Continuous
 62
     7
100
AcDbLine
 10
33.93681180127362
 20
46.77477159747875
 30
0.0
 11
34.13181180127361
 21
46.77477159747875
 31
0.0
  0
LINE
  5
319
330
1F
100
AcDbEntity
  8
0
  6
Continuous
 62
     7
100
AcDbLine
 10
33.46556180127359
 20
46.70977159747875
 30
0.0
 11
33.44931180127361
 21
46.77477159747875
 31
0.0
  0
LINE
  5
31A
330
1F
100
AcDbEntity
  8
0
  6
Continuous
 62
     7
100
AcDbLine
 10
33.51431180127361
 20
46.64477159747875
 30
0.0
 11
33.46556180127359
 21
46.70977159747875
 31
0.0
  0
LINE
  5
31B
330
1F
100
AcDbEntity
  8
0
  6
Continuous
 62
     7
100
AcDbLine
 10
33.31931180127361
 20
46.22227159747875
 30
0.0
 11
33.3355618012736
 21
46.14102159747874
 31
0.0
  0
LINE
  5
31C
330
1F
100
AcDbEntity
  8
0
  6
Continuous
 62
     7
100
AcDbLine
 10
45.86368680127362
 20
46.17352159747874
 30
0.0
 11
45.83118680127362
 21
46.12477159747876
 31
0.0
  0
LINE
  5
31D
330
1F
100
AcDbEntity
  8
0
  6
Continuous
 62
     7
100
AcDbLine
 10
45.31118680127361
 20
46.22227159747875
 30
0.0
 11
45.32743680127362
 21
46.14102159747874
 31
0.0
  0
LINE
  5
31E
330
1F
100
AcDbEntity
  8
0
  6
Continuous
 62
     7
100
AcDbLine
 10
45.53868680127363
 20
46.12477159747873
 30
0.0
 11
45.5061868012736
 21
46.17352159747874
 31
0.0
  0
LINE
  5
31F
330
1F
100
AcDbEntity
  8
0
  6
Continuous
 62
     7
100
AcDbLine
 10
45.97743680127363
 20
46.04352159747876
 30
0.0
 11
46.04243680127362
 21
46.14102159747874
 31
0.0
  0
LINE
  5
320
330
1F
100
AcDbEntity
  8
0
  6
Continuous
 62
     7
100
AcDbLine
 10
45.9124368012736
 20
45.97852159747875
 30
0.0
 11
45.97743680127363
 21
46.04352159747876
 31
0.0
  0
LINE
  5
321
330
1F
100
AcDbEntity
  8
0
  6
Continuous
 62
     7
100
AcDbLine
 10
45.81493680127363
 20
45.92977159747875
 30
0.0
 11
45.9124368012736
 21
45.97852159747875
 31
0.0
  0
LINE
  5
322
330
1F
100
AcDbEntity
  8
0
  6
Continuous
 62
     7
100
AcDbLine
 10
45.32743680127362
 20
46.14102159747874
 30
0.0
 11
45.39243680127359
 21
46.04352159747876
 31
0.0
  0
LINE
  5
323
330
1F
100
AcDbEntity
  8
0
  6
Continuous
 62
     7
100
AcDbLine
 10
45.48993680127362
 20
46.22227159747875
 30
0.0
 11
45.48993680127362
 21
46.28727159747875
 31
0.0
  0
LINE
  5
324
330
1F
100
AcDbEntity
  8
0
  6
Continuous
 62
     7
100
AcDbLine
 10
46.05868680127361
 20
46.22227159747875
 30
0.0
 11
46.05868680127361
 21
46.28727159747875
 31
0.0
  0
LINE
  5
325
330
1F
100
AcDbEntity
  8
0
  6
Continuous
 62
     7
100
AcDbLine
 10
45.31118680127361
 20
46.28727159747876
 30
0.0
 11
45.31118680127361
 21
46.22227159747875
 31
0.0
  0
LINE
  5
326
330
1F
100
AcDbEntity
  8
0
  6
Continuous
 62
     7
100
AcDbLine
 10
45.74993680127361
 20
46.59602159747874
 30
0.0
 11
45.8474368012736
 21
46.67727159747875
 31
0.0
  0
LINE
  5
327
330
1F
100
AcDbEntity
  8
0
  6
Continuous
 62
     7
100
AcDbLine
 10
45.7824368012736
 20
46.83977159747875
 30
0.0
 11
45.66868680127362
 21
46.70977159747876
 31
0.0
  0
LINE
  5
328
330
1F
100
AcDbEntity
  8
0
  6
Continuous
 62
     7
100
AcDbLine
 10
45.5061868012736
 20
46.33602159747875
 30
0.0
 11
45.53868680127363
 21
46.38477159747875
 31
0.0
  0
LINE
  5
329
330
1F
100
AcDbEntity
  8
0
  6
Continuous
 62
     7
100
AcDbLine
 10
45.8474368012736
 20
46.67727159747875
 30
0.0
 11
45.94493680127363
 21
46.79102159747875
 31
0.0
  0
LINE
  5
32A
330
1F
100
AcDbEntity
  8
0
  6
Continuous
 62
     7
100
AcDbLine
 10
45.48993680127362
 20
46.28727159747875
 30
0.0
 11
45.5061868012736
 21
46.33602159747875
 31
0.0
  0
LINE
  5
32B
330
1F
100
AcDbEntity
  8
0
  6
Continuous
 62
     7
100
AcDbLine
 10
45.66868680127362
 20
46.70977159747876
 30
0.0
 11
45.55493680127364
 21
46.61227159747875
 31
0.0
  0
LINE
  5
32C
330
1F
100
AcDbEntity
  8
0
  6
Continuous
 62
     7
100
AcDbLine
 10
45.39243680127362
 20
46.46602159747874
 30
0.0
 11
45.32743680127362
 21
46.36852159747876
 31
0.0
  0
LINE
  5
32D
330
1F
100
AcDbEntity
  8
0
  6
Continuous
 62
     7
100
AcDbLine
 10
45.32743680127362
 20
46.36852159747876
 30
0.0
 11
45.31118680127361
 21
46.28727159747876
 31
0.0
  0
LINE
  5
32E
330
1F
100
AcDbEntity
  8
0
  6
Continuous
 62
     7
100
AcDbLine
 10
45.42493680127362
 20
46.49852159747874
 30
0.0
 11
45.39243680127362
 21
46.46602159747874
 31
0.0
  0
LINE
  5
32F
330
1F
100
AcDbEntity
  8
0
  6
Continuous
 62
     7
100
AcDbLine
 10
46.05868680127361
 20
46.28727159747875
 30
0.0
 11
45.8799368012736
 21
46.28727159747875
 31
0.0
  0
LINE
  5
330
330
1F
100
AcDbEntity
  8
0
  6
Continuous
 62
     7
100
AcDbLine
 10
34.13181180127361
 20
46.77477159747875
 30
0.0
 11
34.13181180127361
 21
46.85602159747874
 31
0.0
  0
LINE
  5
331
330
1F
100
AcDbEntity
  8
0
  6
Continuous
 62
     7
100
AcDbLine
 10
33.72556180127361
 20
46.43352159747875
 30
0.0
 11
33.72556180127361
 21
46.57977159747874
 31
0.0
  0
LINE
  5
332
330
1F
100
AcDbEntity
  8
0
  6
Continuous
 62
     7
100
AcDbLine
 10
45.55493680127364
 20
46.61227159747875
 30
0.0
 11
45.42493680127362
 21
46.49852159747874
 31
0.0
  0
LINE
  5
333
330
1F
100
AcDbEntity
  8
0
  6
Continuous
 62
     7
100
AcDbLine
 10
45.53868680127363
 20
46.38477159747875
 30
0.0
 11
45.74993680127361
 21
46.59602159747874
 31
0.0
  0
LINE
  5
334
330
1F
100
AcDbEntity
  8
0
  6
Continuous
 62
     7
100
AcDbLine
 10
33.28681180127362
 20
46.96977159747874
 30
0.0
 11
33.25431180127362
 21
46.85602159747874
 31
0.0
  0
LINE
  5
335
330
1F
100
AcDbEntity
  8
0
  6
Continuous
 62
     7
100
AcDbLine
 10
33.25431180127362
 20
46.85602159747874
 30
0.0
 11
33.25431180127362
 21
46.77477159747875
 31
0.0
  0
LINE
  5
336
330
1F
100
AcDbEntity
  8
0
  6
Continuous
 62
     7
100
AcDbLine
 10
33.87181180127359
 20
46.96977159747874
 30
0.0
 11
33.92056180127361
 21
46.90477159747874
 31
0.0
  0
LINE
  5
337
330
1F
100
AcDbEntity
  8
0
  6
Continuous
 62
     7
100
AcDbLine
 10
33.8068118012736
 20
47.01852159747875
 30
0.0
 11
33.87181180127359
 21
46.96977159747874
 31
0.0
  0
LINE
  5
338
330
1F
100
AcDbEntity
  8
0
  6
Continuous
 62
     7
100
AcDbLine
 10
33.72556180127361
 20
47.03477159747875
 30
0.0
 11
33.8068118012736
 21
47.01852159747875
 31
0.0
  0
LINE
  5
339
330
1F
100
AcDbEntity
  8
0
  6
Continuous
 62
     7
100
AcDbLine
 10
33.66056180127362
 20
47.03477159747875
 30
0.0
 11
33.72556180127361
 21
47.03477159747875
 31
0.0
  0
LINE
  5
33A
330
1F
100
AcDbEntity
  8
0
  6
Continuous
 62
     7
100
AcDbLine
 10
33.46556180127359
 20
46.90477159747874
 30
0.0
 11
33.51431180127361
 21
46.96977159747874
 31
0.0
  0
LINE
  5
33B
330
1F
100
AcDbEntity
  8
0
  6
Continuous
 62
     7
100
AcDbLine
 10
33.28681180127362
 20
46.66102159747875
 30
0.0
 11
33.35181180127361
 21
46.56352159747874
 31
0.0
  0
LINE
  5
33C
330
1F
100
AcDbEntity
  8
0
  6
Continuous
 62
     7
100
AcDbLine
 10
33.25431180127362
 20
46.77477159747875
 30
0.0
 11
33.28681180127362
 21
46.66102159747875
 31
0.0
  0
LINE
  5
33D
330
1F
100
AcDbEntity
  8
0
  6
Continuous
 62
     7
100
AcDbLine
 10
46.09118680127361
 20
47.00227159747874
 30
0.0
 11
46.12368680127361
 21
47.11602159747875
 31
0.0
  0
LINE
  5
33E
330
1F
100
AcDbEntity
  8
0
  6
Continuous
 62
     7
100
AcDbLine
 10
46.12368680127361
 20
47.11602159747875
 30
0.0
 11
46.12368680127361
 21
47.21352159747875
 31
0.0
  0
LINE
  5
33F
330
1F
100
AcDbEntity
  8
0
  6
Continuous
 62
     7
100
AcDbLine
 10
45.26243680127362
 20
47.05102159747875
 30
0.0
 11
45.89618680127362
 21
47.05102159747875
 31
0.0
  0
LINE
  5
340
330
1F
100
AcDbEntity
  8
0
  6
Continuous
 62
     7
100
AcDbLine
 10
45.26243680127362
 20
47.21352159747875
 30
0.0
 11
45.26243680127362
 21
47.05102159747875
 31
0.0
  0
LINE
  5
341
330
1F
100
AcDbEntity
  8
0
  6
Continuous
 62
     7
100
AcDbLine
 10
33.87181180127359
 20
47.18102159747875
 30
0.0
 11
33.7418118012736
 21
47.21352159747875
 31
0.0
  0
LINE
  5
342
330
1F
100
AcDbEntity
  8
0
  6
Continuous
 62
     7
100
AcDbLine
 10
34.09931180127362
 20
46.96977159747874
 30
0.0
 11
34.0505618012736
 21
47.05102159747875
 31
0.0
  0
LINE
  5
343
330
1F
100
AcDbEntity
  8
0
  6
Continuous
 62
     7
100
AcDbLine
 10
33.5793118012736
 20
47.01852159747875
 30
0.0
 11
33.66056180127362
 21
47.03477159747875
 31
0.0
  0
LINE
  5
344
330
1F
100
AcDbEntity
  8
0
  6
Continuous
 62
     7
100
AcDbLine
 10
33.51431180127361
 20
46.96977159747874
 30
0.0
 11
33.5793118012736
 21
47.01852159747875
 31
0.0
  0
LINE
  5
345
330
1F
100
AcDbEntity
  8
0
  6
Continuous
 62
     7
100
AcDbLine
 10
33.3355618012736
 20
47.05102159747875
 30
0.0
 11
33.28681180127362
 21
46.96977159747874
 31
0.0
  0
LINE
  5
346
330
1F
100
AcDbEntity
  8
0
  6
Continuous
 62
     7
100
AcDbLine
 10
34.0505618012736
 20
47.05102159747875
 30
0.0
 11
33.96931180127362
 21
47.13227159747875
 31
0.0
  0
LINE
  5
347
330
1F
100
AcDbEntity
  8
0
  6
Continuous
 62
     7
100
AcDbLine
 10
33.51431180127361
 20
47.18102159747875
 30
0.0
 11
33.41681180127361
 21
47.13227159747875
 31
0.0
  0
LINE
  5
348
330
1F
100
AcDbEntity
  8
0
  6
Continuous
 62
     7
100
AcDbLine
 10
33.6443118012736
 20
47.21352159747875
 30
0.0
 11
33.51431180127361
 21
47.18102159747875
 31
0.0
  0
LINE
  5
349
330
1F
100
AcDbEntity
  8
0
  6
Continuous
 62
     7
100
AcDbLine
 10
33.7418118012736
 20
47.21352159747875
 30
0.0
 11
33.6443118012736
 21
47.21352159747875
 31
0.0
  0
LINE
  5
34A
330
1F
100
AcDbEntity
  8
0
  6
Continuous
 62
     7
100
AcDbLine
 10
33.41681180127361
 20
47.13227159747875
 30
0.0
 11
33.3355618012736
 21
47.05102159747875
 31
0.0
  0
LINE
  5
34B
330
1F
100
AcDbEntity
  8
0
  6
Continuous
 62
     7
100
AcDbLine
 10
45.86368680127362
 20
46.95352159747874
 30
0.0
 11
45.7824368012736
 21
46.83977159747875
 31
0.0
  0
LINE
  5
34C
330
1F
100
AcDbEntity
  8
0
  6
Continuous
 62
     7
100
AcDbLine
 10
45.89618680127362
 20
47.05102159747875
 30
0.0
 11
45.86368680127362
 21
46.95352159747874
 31
0.0
  0
LINE
  5
34D
330
1F
100
AcDbEntity
  8
0
  6
Continuous
 62
     7
100
AcDbLine
 10
46.12368680127361
 20
47.21352159747875
 30
0.0
 11
45.26243680127362
 21
47.21352159747875
 31
0.0
  0
LINE
  5
34E
330
1F
100
AcDbEntity
  8
0
  6
Continuous
 62
     7
100
AcDbLine
 10
46.02618680127361
 20
46.88852159747874
 30
0.0
 11
46.09118680127361
 21
47.00227159747874
 31
0.0
  0
LINE
  5
34F
330
1F
100
AcDbEntity
  8
0
  6
Continuous
 62
     7
100
AcDbLine
 10
45.94493680127363
 20
46.79102159747875
 30
0.0
 11
46.02618680127361
 21
46.88852159747874
 31
0.0
  0
LINE
  5
350
330
1F
100
AcDbEntity
  8
0
  6
Continuous
 62
     7
100
AcDbLine
 10
33.56306180127362
 20
45.92977159747875
 30
0.0
 11
33.6443118012736
 21
45.91352159747875
 31
0.0
  0
LINE
  5
351
330
1F
100
AcDbEntity
  8
0
  6
Continuous
 62
     7
100
AcDbLine
 10
33.66056180127362
 20
46.07602159747874
 30
0.0
 11
33.59556180127359
 21
46.09227159747874
 31
0.0
  0
LINE
  5
352
330
1F
100
AcDbEntity
  8
0
  6
Continuous
 62
     7
100
AcDbLine
 10
33.72556180127361
 20
46.07602159747874
 30
0.0
 11
33.66056180127362
 21
46.07602159747874
 31
0.0
  0
LINE
  5
353
330
1F
100
AcDbEntity
  8
0
  6
Continuous
 62
     7
100
AcDbLine
 10
33.83931180127362
 20
46.12477159747876
 30
0.0
 11
33.79056180127361
 21
46.09227159747874
 31
0.0
  0
LINE
  5
354
330
1F
100
AcDbEntity
  8
0
  6
Continuous
 62
     7
100
AcDbLine
 10
33.88806180127361
 20
46.22227159747875
 30
0.0
 11
33.87181180127362
 21
46.17352159747875
 31
0.0
  0
LINE
  5
355
330
1F
100
AcDbEntity
  8
0
  6
Continuous
 62
     7
100
AcDbLine
 10
33.88806180127361
 20
46.28727159747875
 30
0.0
 11
33.88806180127361
 21
46.22227159747875
 31
0.0
  0
LINE
  5
356
330
1F
100
AcDbEntity
  8
0
  6
Continuous
 62
     7
100
AcDbLine
 10
33.72556180127361
 20
46.57977159747874
 30
0.0
 11
33.66056180127362
 21
46.57977159747874
 31
0.0
  0
LINE
  5
357
330
1F
100
AcDbEntity
  8
0
  6
Continuous
 62
     7
100
AcDbLine
 10
33.93681180127362
 20
46.83977159747875
 30
0.0
 11
33.93681180127362
 21
46.77477159747875
 31
0.0
  0
LINE
  5
358
330
1F
100
AcDbEntity
  8
0
  6
Continuous
 62
     7
100
AcDbLine
 10
33.44931180127361
 20
46.77477159747875
 30
0.0
 11
33.44931180127361
 21
46.83977159747875
 31
0.0
  0
LINE
  5
359
330
1F
100
AcDbEntity
  8
0
  6
Continuous
 62
     7
100
AcDbLine
 10
33.5793118012736
 20
46.59602159747874
 30
0.0
 11
33.51431180127361
 21
46.64477159747875
 31
0.0
  0
LINE
  5
35A
330
1F
100
AcDbEntity
  8
0
  6
Continuous
 62
     7
100
AcDbLine
 10
33.66056180127362
 20
46.57977159747874
 30
0.0
 11
33.5793118012736
 21
46.59602159747874
 31
0.0
  0
LINE
  5
35B
330
1F
100
AcDbEntity
  8
0
  6
Continuous
 62
     7
100
AcDbLine
 10
33.66056180127362
 20
46.43352159747875
 30
0.0
 11
33.72556180127361
 21
46.43352159747875
 31
0.0
  0
LINE
  5
35C
330
1F
100
AcDbEntity
  8
0
  6
Continuous
 62
     7
100
AcDbLine
 10
33.59556180127362
 20
46.41727159747875
 30
0.0
 11
33.66056180127362
 21
46.43352159747875
 31
0.0
  0
LINE
  5
35D
330
1F
100
AcDbEntity
  8
0
  6
Continuous
 62
     7
100
AcDbLine
 10
33.54681180127363
 20
46.38477159747876
 30
0.0
 11
33.59556180127362
 21
46.41727159747875
 31
0.0
  0
LINE
  5
35E
330
1F
100
AcDbEntity
  8
0
  6
Continuous
 62
     7
100
AcDbLine
 10
33.51431180127361
 20
46.33602159747875
 30
0.0
 11
33.54681180127363
 21
46.38477159747876
 31
0.0
  0
LINE
  5
35F
330
1F
100
AcDbEntity
  8
0
  6
Continuous
 62
     7
100
AcDbLine
 10
33.49806180127359
 20
46.28727159747875
 30
0.0
 11
33.51431180127361
 21
46.33602159747875
 31
0.0
  0
LINE
  5
360
330
1F
100
AcDbEntity
  8
0
  6
Continuous
 62
     7
100
AcDbLine
 10
33.49806180127359
 20
46.22227159747875
 30
0.0
 11
33.49806180127359
 21
46.28727159747875
 31
0.0
  0
LINE
  5
361
330
1F
100
AcDbEntity
  8
0
  6
Continuous
 62
     7
100
AcDbLine
 10
33.51431180127361
 20
46.17352159747875
 30
0.0
 11
33.49806180127359
 21
46.22227159747875
 31
0.0
  0
LINE
  5
362
330
1F
100
AcDbEntity
  8
0
  6
Continuous
 62
     7
100
AcDbLine
 10
33.54681180127361
 20
46.12477159747874
 30
0.0
 11
33.51431180127361
 21
46.17352159747875
 31
0.0
  0
LINE
  5
363
330
1F
100
AcDbEntity
  8
0
  6
Continuous
 62
     7
100
AcDbLine
 10
33.59556180127359
 20
46.09227159747874
 30
0.0
 11
33.54681180127361
 21
46.12477159747874
 31
0.0
  0
LINE
  5
364
330
1F
100
AcDbEntity
  8
0
  6
Continuous
 62
     7
100
AcDbLine
 10
33.87181180127362
 20
46.17352159747875
 30
0.0
 11
33.83931180127362
 21
46.12477159747876
 31
0.0
  0
LINE
  5
365
330
1F
100
AcDbEntity
  8
0
  6
Continuous
 62
     7
100
AcDbLine
 10
33.46556180127359
 20
45.97852159747875
 30
0.0
 11
33.56306180127362
 21
45.92977159747875
 31
0.0
  0
LINE
  5
366
330
1F
100
AcDbEntity
  8
0
  6
Continuous
 62
     7
100
AcDbLine
 10
32.19306180127362
 20
51.26352159747874
 30
0.0
 11
47.19306180127362
 21
51.26352159747874
 31
0.0
  0
LINE
  5
367
330
1F
100
AcDbEntity
  8
0
  6
Continuous
 62
     7
100
AcDbLine
 10
47.44306180127362
 20
39.76352159747873
 30
0.0
 11
42.36650237211927
 21
39.76352159747873
 31
0.0
  0
LINE
  5
368
330
1F
100
AcDbEntity
  8
0
  6
Continuous
 62
     7
100
AcDbLine
 10
47.44306180127362
 20
41.76352159747876
 30
0.0
 11
41.9843496487515
 21
41.76352159747876
 31
0.0
  0
LINE
  5
369
330
1F
100
AcDbEntity
  8
0
  6
Continuous
 62
     7
100
AcDbLine
 10
31.44306180127362
 20
39.76352159747873
 30
0.0
 11
31.94306180127362
 21
39.76352159747873
 31
0.0
  0
LINE
  5
36A
330
1F
100
AcDbEntity
  8
0
  6
Continuous
 62
     7
100
AcDbLine
 10
31.94306180127362
 20
39.76352159747873
 30
0.0
 11
37.01962123042793
 21
39.76352159747873
 31
0.0
  0
LINE
  5
36B
330
1F
100
AcDbEntity
  8
0
  6
Continuous
 62
     7
100
AcDbLine
 10
30.19306180127362
 20
39.26352159747874
 30
0.0
 11
30.3930618012736
 21
39.26352159747874
 31
0.0
  0
LINE
  5
36C
330
1F
100
AcDbEntity
  8
0
  6
Continuous
 62
     7
100
AcDbLine
 10
29.19306180127359
 20
39.26352159747874
 30
0.0
 11
30.19306180127362
 21
39.26352159747874
 31
0.0
  0
LINE
  5
36D
330
1F
100
AcDbEntity
  8
0
  6
Continuous
 62
     7
100
AcDbLine
 10
39.17289375283542
 20
38.18472124878575
 30
0.0
 11
39.17289375283542
 21
38.08728935108448
 31
0.0
  0
LINE
  5
36E
330
1F
100
AcDbEntity
  8
0
  6
Continuous
 62
     7
100
AcDbLine
 10
39.17289375283542
 20
38.08728935108448
 30
0.0
 11
39.64302515471633
 21
38.08728935108448
 31
0.0
  0
LINE
  5
36F
330
1F
100
AcDbEntity
  8
0
  6
Continuous
 62
     7
100
AcDbLine
 10
39.64302515471633
 20
38.08728935108448
 30
0.0
 11
39.64302515471633
 21
37.64836803210991
 31
0.0
  0
LINE
  5
370
330
1F
100
AcDbEntity
  8
0
  6
Continuous
 62
     7
100
AcDbLine
 10
39.53909205893592
 20
38.6424691314113
 30
0.0
 11
39.53909205893592
 21
38.5450372337101
 31
0.0
  0
LINE
  5
371
330
1F
100
AcDbEntity
  8
0
  6
Continuous
 62
     7
100
AcDbLine
 10
39.64302515471633
 20
37.64836803210991
 30
0.0
 11
39.74045705241755
 21
37.64836803210991
 31
0.0
  0
LINE
  5
372
330
1F
100
AcDbEntity
  8
0
  6
Continuous
 62
     7
100
AcDbLine
 10
39.74045705241755
 20
37.64836803210991
 30
0.0
 11
39.74045705241755
 21
38.08728935108448
 31
0.0
  0
LINE
  5
373
330
1F
100
AcDbEntity
  8
0
  6
Continuous
 62
     7
100
AcDbLine
 10
39.74045705241755
 20
38.08728935108448
 30
0.0
 11
40.21322984971184
 21
38.08728935108448
 31
0.0
  0
LINE
  5
374
330
1F
100
AcDbEntity
  8
0
  6
Continuous
 62
     7
100
AcDbLine
 10
40.21322984971184
 20
38.08728935108448
 30
0.0
 11
40.21322984971184
 21
38.18472124878575
 31
0.0
  0
LINE
  5
375
330
1F
100
AcDbEntity
  8
0
  6
Continuous
 62
     7
100
AcDbLine
 10
40.21322984971184
 20
38.18472124878575
 30
0.0
 11
39.17289375283542
 21
38.18472124878575
 31
0.0
  0
LINE
  5
376
330
1F
100
AcDbEntity
  8
0
  6
Continuous
 62
     7
100
AcDbLine
 10
39.53909205893592
 20
38.5450372337101
 30
0.0
 11
39.84703154361134
 21
38.5450372337101
 31
0.0
  0
LINE
  5
377
330
1F
100
AcDbEntity
  8
0
  6
Continuous
 62
     7
100
AcDbLine
 10
39.84703154361134
 20
38.5450372337101
 30
0.0
 11
39.84703154361134
 21
38.6424691314113
 31
0.0
  0
LINE
  5
378
330
1F
100
AcDbEntity
  8
0
  6
Continuous
 62
     7
100
AcDbLine
 10
39.3559929058857
 20
38.31616329239732
 30
0.0
 11
40.03013069666164
 21
38.31616329239732
 31
0.0
  0
LINE
  5
379
330
1F
100
AcDbEntity
  8
0
  6
Continuous
 62
     7
100
AcDbLine
 10
40.03013069666164
 20
38.31616329239732
 30
0.0
 11
40.03013069666164
 21
38.41359519009851
 31
0.0
  0
LINE
  5
37A
330
1F
100
AcDbEntity
  8
0
  6
Continuous
 62
     7
100
AcDbLine
 10
39.3559929058857
 20
38.41359519009851
 30
0.0
 11
39.3559929058857
 21
38.31616329239732
 31
0.0
  0
LINE
  5
37B
330
1F
100
AcDbEntity
  8
0
  6
Continuous
 62
     7
100
AcDbLine
 10
40.03013069666164
 20
38.41359519009851
 30
0.0
 11
39.3559929058857
 21
38.41359519009851
 31
0.0
  0
LINE
  5
37C
330
1F
100
AcDbEntity
  8
0
  6
Continuous
 62
     7
100
AcDbLine
 10
39.84703154361134
 20
38.6424691314113
 30
0.0
 11
39.53909205893592
 21
38.6424691314113
 31
0.0
  0
LINE
  5
37D
330
1F
100
AcDbEntity
  8
0
  6
Continuous
 62
     7
100
AcDbLine
 10
41.2430618012736
 20
44.06352159747874
 30
0.0
 11
38.1430618012736
 21
44.06352159747874
 31
0.0
  0
LINE
  5
37E
330
1F
100
AcDbEntity
  8
0
  6
Continuous
 62
     7
100
AcDbLine
 10
40.77675414311861
 20
45.06352159747874
 30
0.0
 11
41.2430618012736
 21
44.06352159747874
 31
0.0
  0
LINE
  5
37F
330
1F
100
AcDbEntity
  8
0
  6
Continuous
 62
     7
100
AcDbLine
 10
40.77675414311861
 20
45.06352159747874
 30
0.0
 11
41.79306180127361
 21
45.06352159747874
 31
0.0
  0
LINE
  5
380
330
1F
100
AcDbEntity
  8
0
  6
Continuous
 62
     7
100
AcDbLine
 10
37.59306180127362
 20
45.06352159747874
 30
0.0
 11
38.60936945942859
 21
45.06352159747874
 31
0.0
  0
LINE
  5
381
330
1F
100
AcDbEntity
  8
0
  6
Continuous
 62
     7
100
AcDbLine
 10
38.19306180127362
 20
42.76352159747874
 30
0.0
 11
41.19306180127362
 21
42.76352159747874
 31
0.0
  0
LINE
  5
382
330
1F
100
AcDbEntity
  8
0
  6
Continuous
 62
     7
100
AcDbLine
 10
31.44306180127362
 20
41.76352159747876
 30
0.0
 11
31.94306180127362
 21
41.76352159747876
 31
0.0
  0
LINE
  5
383
330
1F
100
AcDbEntity
  8
0
  6
Continuous
 62
     7
100
AcDbLine
 10
30.19306180127362
 20
42.26352159747874
 30
0.0
 11
30.3930618012736
 21
42.26352159747874
 31
0.0
  0
LINE
  5
384
330
1F
100
AcDbEntity
  8
0
  6
Continuous
 62
     7
100
AcDbLine
 10
29.19306180127359
 20
42.26352159747874
 30
0.0
 11
30.19306180127362
 21
42.26352159747874
 31
0.0
  0
LINE
  5
385
330
1F
100
AcDbEntity
  8
0
  6
Continuous
 62
     7
100
AcDbLine
 10
37.4017739537957
 20
41.76352159747876
 30
0.0
 11
31.94306180127362
 21
41.76352159747876
 31
0.0
  0
LINE
  5
386
330
1F
100
AcDbEntity
  8
0
  6
Continuous
 62
     7
100
AcDbLine
 10
38.1430618012736
 20
44.06352159747874
 30
0.0
 11
38.60936945942859
 21
45.06352159747874
 31
0.0
  0
LINE
  5
387
330
1F
100
AcDbEntity
  8
0
  6
Continuous
 62
     7
100
AcDbLine
 10
50.19306180127359
 20
39.26352159747874
 30
0.0
 11
50.19306180127362
 21
33.26352159747873
 31
0.0
  0
LINE
  5
388
330
1F
100
AcDbEntity
  8
0
  6
Continuous
 62
     7
100
AcDbLine
 10
49.6930618012735
 20
39.26352159747874
 30
0.0
 11
49.6930618012735
 21
42.26352159747874
 31
0.0
  0
LINE
  5
389
330
1F
100
AcDbEntity
  8
0
  6
Continuous
 62
     7
100
AcDbLine
 10
47.94306180127362
 20
45.51352159747874
 30
0.0
 11
47.94306180127362
 21
41.76352159747876
 31
0.0
  0
LINE
  5
38A
330
1F
100
AcDbEntity
  8
0
  6
Continuous
 62
     7
100
AcDbLine
 10
47.94306180127362
 20
41.76352159747876
 30
0.0
 11
47.44306180127362
 21
41.76352159747876
 31
0.0
  0
LINE
  5
38B
330
1F
100
AcDbEntity
  8
0
  6
Continuous
 62
     7
100
AcDbLine
 10
47.94306180127362
 20
39.76352159747873
 30
0.0
 11
47.44306180127362
 21
39.76352159747873
 31
0.0
  0
LINE
  5
38C
330
1F
100
AcDbEntity
  8
0
  6
Continuous
 62
     7
100
AcDbLine
 10
47.94306180127362
 20
39.76352159747873
 30
0.0
 11
47.94306180127362
 21
36.01352159747874
 31
0.0
  0
LINE
  5
38D
330
1F
100
AcDbEntity
  8
0
  6
Continuous
 62
     7
100
AcDbLine
 10
50.19306180127359
 20
48.26352159747874
 30
0.0
 11
50.19306180127359
 21
42.26352159747874
 31
0.0
  0
LINE
  5
38E
330
1F
100
AcDbEntity
  8
0
  6
Continuous
 62
     7
100
AcDbLine
 10
50.19306180127359
 20
42.26352159747874
 30
0.0
 11
50.19306180127359
 21
39.26352159747874
 31
0.0
  0
LINE
  5
38F
330
1F
100
AcDbEntity
  8
0
  6
Continuous
 62
     7
100
AcDbLine
 10
42.91055475599177
 20
32.51352159747874
 30
0.0
 11
36.47556884655543
 21
32.51352159747874
 31
0.0
  0
LINE
  5
390
330
1F
100
AcDbEntity
  8
0
  6
Continuous
 62
     7
100
AcDbLine
 10
45.61993680127361
 20
35.61352159747875
 30
0.0
 11
45.45743680127362
 21
35.61352159747875
 31
0.0
  0
LINE
  5
391
330
1F
100
AcDbEntity
  8
0
  6
Continuous
 62
     7
100
AcDbLine
 10
44.5371348794647
 20
33.01499691758036
 30
0.0
 11
44.71578377898038
 21
32.52416310015066
 31
0.0
  0
LINE
  5
392
330
1F
100
AcDbEntity
  8
0
  6
Continuous
 62
     7
100
AcDbLine
 10
45.45743680127362
 20
35.61352159747875
 30
0.0
 11
45.45743680127362
 21
34.31352159747875
 31
0.0
  0
LINE
  5
393
330
1F
100
AcDbEntity
  8
0
  6
Continuous
 62
     7
100
AcDbLine
 10
45.45743680127362
 20
34.31352159747875
 30
0.0
 11
45.58743680127361
 21
34.31352159747875
 31
0.0
  0
LINE
  5
394
330
1F
100
AcDbEntity
  8
0
  6
Continuous
 62
     7
100
AcDbLine
 10
45.58743680127361
 20
34.31352159747875
 30
0.0
 11
45.6036868012736
 21
34.36227159747875
 31
0.0
  0
LINE
  5
395
330
1F
100
AcDbEntity
  8
0
  6
Continuous
 62
     7
100
AcDbLine
 10
45.61993680127361
 20
34.67102159747876
 30
0.0
 11
45.61993680127361
 21
35.61352159747875
 31
0.0
  0
LINE
  5
396
330
1F
100
AcDbEntity
  8
0
  6
Continuous
 62
     7
100
AcDbLine
 10
44.44306180127362
 20
32.51352159747874
 30
0.0
 11
42.91055475599177
 21
32.51352159747874
 31
0.0
  0
LINE
  5
397
330
1F
100
AcDbEntity
  8
0
  6
Continuous
 62
     7
100
AcDbLine
 10
42.91055475599177
 20
32.51352159747874
 30
0.0
 11
42.72856963885866
 21
33.01352159747874
 31
0.0
  0
LINE
  5
398
330
1F
100
AcDbEntity
  8
0
  6
Continuous
 62
     7
100
AcDbLine
 10
45.70118680127359
 20
34.47602159747873
 30
0.0
 11
45.76618680127359
 21
34.50852159747875
 31
0.0
  0
LINE
  5
399
330
1F
100
AcDbEntity
  8
0
  6
Continuous
 62
     7
100
AcDbLine
 10
45.89618680127362
 20
34.54102159747875
 30
0.0
 11
45.92868680127361
 21
34.54102159747875
 31
0.0
  0
LINE
  5
39A
330
1F
100
AcDbEntity
  8
0
  6
Continuous
 62
     7
100
AcDbLine
 10
45.8149368012736
 20
34.52477159747875
 30
0.0
 11
45.89618680127362
 21
34.54102159747875
 31
0.0
  0
LINE
  5
39B
330
1F
100
AcDbEntity
  8
0
  6
Continuous
 62
     7
100
AcDbLine
 10
45.92868680127361
 20
34.67102159747876
 30
0.0
 11
45.61993680127361
 21
34.67102159747876
 31
0.0
  0
LINE
  5
39C
330
1F
100
AcDbEntity
  8
0
  6
Continuous
 62
     7
100
AcDbLine
 10
45.76618680127359
 20
34.50852159747875
 30
0.0
 11
45.8149368012736
 21
34.52477159747875
 31
0.0
  0
LINE
  5
39D
330
1F
100
AcDbEntity
  8
0
  6
Continuous
 62
     7
100
AcDbLine
 10
45.92868680127361
 20
34.54102159747875
 30
0.0
 11
45.92868680127361
 21
34.67102159747876
 31
0.0
  0
LINE
  5
39E
330
1F
100
AcDbEntity
  8
0
  6
Continuous
 62
     7
100
AcDbLine
 10
45.6036868012736
 20
34.36227159747875
 30
0.0
 11
45.65243680127361
 21
34.42727159747875
 31
0.0
  0
LINE
  5
39F
330
1F
100
AcDbEntity
  8
0
  6
Continuous
 62
     7
100
AcDbLine
 10
45.65243680127361
 20
34.42727159747875
 30
0.0
 11
45.70118680127359
 21
34.47602159747873
 31
0.0
  0
LINE
  5
3A0
330
1F
100
AcDbEntity
  8
0
  6
Continuous
 62
     7
100
AcDbLine
 10
36.47556884655543
 20
32.51352159747874
 30
0.0
 11
36.65755396368851
 21
33.01352159747874
 31
0.0
  0
LINE
  5
3A1
330
1F
100
AcDbEntity
  8
0
  6
Continuous
 62
     7
100
AcDbLine
 10
37.20755975458511
 20
39.49511756881358
 30
0.0
 11
34.8489887230825
 21
33.01499691758036
 31
0.0
  0
LINE
  5
3A2
330
1F
100
AcDbEntity
  8
1
  6
DOT_CENTER
 62
     7
100
AcDbLine
 10
46.01306180127361
 20
43.86352159747874
 30
0.0
 11
43.37306180127359
 21
43.86352159747874
 31
0.0
  0
LINE
  5
3A3
330
1F
100
AcDbEntity
  8
1
  6
DOT_CENTER
 62
     7
100
AcDbLine
 10
44.69306180127362
 20
45.18352159747875
 30
0.0
 11
44.69306180127362
 21
42.54352159747873
 31
0.0
  0
LINE
  5
3A4
330
1F
100
AcDbEntity
  8
1
  6
DOT_CENTER
 62
     7
100
AcDbLine
 10
40.51546795534753
 20
38.13732599764182
 30
0.0
 11
38.87065564719967
 21
38.13732599764182
 31
0.0
  0
LINE
  5
3A5
330
1F
100
AcDbEntity
  8
1
  6
DOT_CENTER
 62
     7
100
AcDbLine
 10
39.69306180127362
 20
38.95973215171574
 30
0.0
 11
39.69306180127362
 21
37.31491984356789
 31
0.0
  0
LINE
  5
3A6
330
1F
100
AcDbEntity
  8
1
  6
DOT_CENTER
 62
     7
100
AcDbLine
 10
36.01306180127361
 20
37.66352159747873
 30
0.0
 11
33.37306180127359
 21
37.66352159747873
 31
0.0
  0
LINE
  5
3A7
330
1F
100
AcDbEntity
  8
1
  6
DOT_CENTER
 62
     7
100
AcDbLine
 10
34.69306180127362
 20
38.98352159747874
 30
0.0
 11
34.69306180127362
 21
36.34352159747873
 31
0.0
  0
LINE
  5
3A8
330
1F
100
AcDbEntity
  8
1
  6
DOT_CENTER
 62
     7
100
AcDbLine
 10
46.01306180127361
 20
37.66352159747873
 30
0.0
 11
43.37306180127359
 21
37.66352159747873
 31
0.0
  0
LINE
  5
3A9
330
1F
100
AcDbEntity
  8
1
  6
DOT_CENTER
 62
     7
100
AcDbLine
 10
44.69306180127362
 20
38.98352159747874
 30
0.0
 11
44.69306180127362
 21
36.34352159747873
 31
0.0
  0
LINE
  5
3AA
330
1F
100
AcDbEntity
  8
1
  6
DOT_CENTER
 62
     7
100
AcDbLine
 10
41.56306180127362
 20
35.21352159747875
 30
0.0
 11
37.82306180127358
 21
35.21352159747875
 31
0.0
  0
LINE
  5
3AB
330
1F
100
AcDbEntity
  8
1
  6
DOT_CENTER
 62
     7
100
AcDbLine
 10
39.69306180127362
 20
37.08352159747876
 30
0.0
 11
39.69306180127362
 21
33.34352159747873
 31
0.0
  0
LINE
  5
3AC
330
1F
100
AcDbEntity
  8
1
  6
DOT_CENTER
 62
     7
100
AcDbLine
 10
36.01306180127361
 20
43.86352159747874
 30
0.0
 11
33.37306180127359
 21
43.86352159747874
 31
0.0
  0
LINE
  5
3AD
330
1F
100
AcDbEntity
  8
1
  6
DOT_CENTER
 62
     7
100
AcDbLine
 10
34.69306180127362
 20
45.18352159747876
 30
0.0
 11
34.69306180127362
 21
42.54352159747873
 31
0.0
  0
LINE
  5
3AE
330
1F
100
AcDbEntity
  8
1
  6
DOT_CENTER
 62
     7
100
AcDbLine
 10
39.69306180127359
 20
30.26352159747875
 30
0.0
 11
39.69306180127359
 21
29.7848636647683
 31
0.0
  0
LINE
  5
3AF
330
1F
100
AcDbEntity
  8
1
  6
DOT_CENTER
 62
     7
100
AcDbLine
 10
39.69306180127362
 20
28.71352159747872
 30
0.0
 11
39.69306180127362
 21
29.08486366476832
 31
0.0
  0
ARC
  5
3B0
102
{ACAD_REACTORS
330
496
102
}
330
1F
100
AcDbEntity
  8
1
  6
Continuous
 62
     7
100
AcDbCircle
 10
97.8381503443714
 20
5.42336530453161
 30
0.0
 40
0.1666666666666586
100
AcDbArc
 50
299.9816393688334
 51
119.9816393688365
  0
ARC
  5
3B1
102
{ACAD_REACTORS
330
496
102
}
330
1F
100
AcDbEntity
  8
1
  6
Continuous
 62
     7
100
AcDbCircle
 10
97.8381503443714
 20
6.25
 30
0.0
 40
0.1666666666666847
100
AcDbArc
 50
270.0
 51
90.0
  0
ARC
  5
3B2
102
{ACAD_REACTORS
330
496
102
}
330
1F
100
AcDbEntity
  8
1
  6
Continuous
 62
     7
100
AcDbCircle
 10
97.8381503443714
 20
7.07663469546833
 30
0.0
 40
0.1666666666666806
100
AcDbArc
 50
240.018360631154
 51
60.01836063115638
  0
ARC
  5
3B3
102
{ACAD_REACTORS
330
497
102
}
330
1F
100
AcDbEntity
  8
1
  6
Continuous
 62
     7
100
AcDbCircle
 10
93.8381503443714
 20
5.42336530453161
 30
0.0
 40
0.1666666666666998
100
AcDbArc
 50
180.0
 51
0.0
  0
ARC
  5
3B4
102
{ACAD_REACTORS
330
497
102
}
330
1F
100
AcDbEntity
  8
1
  6
Continuous
 62
     7
100
AcDbCircle
 10
93.8381503443714
 20
7.07663469546833
 30
0.0
 40
0.1666666666666572
100
AcDbArc
 50
0.0
 51
180.0
  0
ARC
  5
3B5
102
{ACAD_REACTORS
330
498
102
}
330
1F
100
AcDbEntity
  8
1
  6
Continuous
 62
     7
100
AcDbCircle
 10
95.6714836777047
 20
4.36567299683935
 30
0.0
 40
0.1666666666666783
100
AcDbArc
 50
240.0183606311536
 51
60.01836063113668
  0
ARC
  5
3B6
102
{ACAD_REACTORS
330
498
102
}
330
1F
100
AcDbEntity
  8
1
  6
Continuous
 62
     7
100
AcDbCircle
 10
94.50481701103806
 20
7.46125008008369
 30
0.0
 40
0.166666666666643
100
AcDbArc
 50
0.0
 51
180.0
  0
ARC
  5
3B7
102
{ACAD_REACTORS
330
499
102
}
330
1F
100
AcDbEntity
  8
1
  6
Continuous
 62
     7
100
AcDbCircle
 10
96.53900057146706
 20
7.86560865601728
 30
0.0
 40
0.1324831062376433
100
AcDbArc
 50
0.0
 51
149.9999999999716
  0
ARC
  5
3B8
102
{ACAD_REACTORS
330
499
102
}
330
1F
100
AcDbEntity
  8
1
  6
Continuous
 62
     7
100
AcDbCircle
 10
96.5048170110381
 20
4.6541345353009
 30
0.0
 40
0.1666666666666998
100
AcDbArc
 50
180.0
 51
0.0
  0
ARC
  5
3B9
102
{ACAD_REACTORS
330
499
102
}
330
1F
100
AcDbEntity
  8
1
  6
Continuous
 62
     7
100
AcDbCircle
 10
95.1714836777047
 20
5.42379253631645
 30
0.0
 40
0.166666666666643
100
AcDbArc
 50
180.0
 51
0.0
  0
ARC
  5
3BA
102
{ACAD_REACTORS
330
499
102
}
330
1F
100
AcDbEntity
  8
1
  6
Continuous
 62
     7
100
AcDbCircle
 10
95.1373001172757
 20
7.86560865601728
 30
0.0
 40
0.1324831062376427
100
AcDbArc
 50
30.00000000001921
 51
180.0
  0
ARC
  5
3BB
330
1F
100
AcDbEntity
  8
0
  6
Continuous
 62
     7
100
AcDbCircle
 10
41.94301181515479
 20
131.3347921415243
 30
0.0
 40
0.1949999999999357
100
AcDbArc
 50
299.9816393688635
 51
60.01836063115623
  0
ARC
  5
3BC
330
1F
100
AcDbEntity
  8
0
  6
Continuous
 62
     7
100
AcDbCircle
 10
47.19306180127356
 20
132.6635215976238
 30
0.0
 40
3.0
100
AcDbArc
 50
0.0
 51
90.0
  0
ARC
  5
3BD
330
1F
100
AcDbEntity
  8
0
  6
Continuous
 62
     7
100
AcDbCircle
 10
47.19306180127356
 20
117.6635215976238
 30
0.0
 40
3.0
100
AcDbArc
 50
270.0
 51
0.0
  0
ARC
  5
3BE
330
1F
100
AcDbEntity
  8
0
  6
Continuous
 62
     7
100
AcDbCircle
 10
32.19306180127356
 20
117.6635215976238
 30
0.0
 40
2.999999999999975
100
AcDbArc
 50
213.5573097619211
 51
270.0
  0
ARC
  5
3BF
330
1F
100
AcDbEntity
  8
0
  6
Continuous
 62
     7
100
AcDbCircle
 10
32.19306180127356
 20
117.6635215976238
 30
0.0
 40
3.000000000000018
100
AcDbArc
 50
180.0
 51
213.5573097619211
  0
ARC
  5
3C0
330
1F
100
AcDbEntity
  8
0
  6
Continuous
 62
     7
100
AcDbCircle
 10
32.19306180127356
 20
132.6635215976238
 30
0.0
 40
3.0
100
AcDbArc
 50
90.00000000000054
 51
146.4426902380791
  0
ARC
  5
3C1
330
1F
100
AcDbEntity
  8
0
  6
Continuous
 62
     7
100
AcDbCircle
 10
32.19306180127356
 20
132.6635215976238
 30
0.0
 40
2.999999999999967
100
AcDbArc
 50
146.4426902380791
 51
180.0
  0
ARC
  5
3C2
330
1F
100
AcDbEntity
  8
0
  6
Continuous
 62
     7
100
AcDbCircle
 10
39.69306180127359
 20
132.363779336431
 30
0.0
 40
5.600000000000007
100
AcDbArc
 50
98.25595822582709
 51
120.0000000000004
  0
ARC
  5
3C3
330
1F
100
AcDbEntity
  8
0
  6
Continuous
 62
     7
100
AcDbCircle
 10
39.69306180127359
 20
132.363779336431
 30
0.0
 40
5.599999999999954
100
AcDbArc
 50
59.99999999999969
 51
81.74404177417313
  0
ARC
  5
3C4
330
1F
100
AcDbEntity
  8
0
  6
Continuous
 62
     7
100
AcDbCircle
 10
37.44311178739238
 20
131.3347921415243
 30
0.0
 40
0.0450000000000081
100
AcDbArc
 50
119.9816393688138
 51
240.0183606311862
  0
ARC
  5
3C5
330
1F
100
AcDbEntity
  8
0
  6
Continuous
 62
     7
100
AcDbCircle
 10
37.44311178739238
 20
131.3347921415243
 30
0.0
 40
0.1949999999999989
100
AcDbArc
 50
119.9816393688456
 51
240.0183606311383
  0
ARC
  5
3C6
330
1F
100
AcDbEntity
  8
0
  6
Continuous
 62
     7
100
AcDbCircle
 10
39.06306180127356
 20
130.7326978514931
 30
0.0
 40
0.1799999999999997
100
AcDbArc
 50
180.0
 51
240.018360631148
  0
ARC
  5
3C7
330
1F
100
AcDbEntity
  8
0
  6
Continuous
 62
     7
100
AcDbCircle
 10
38.61306180127363
 20
130.8884094059714
 30
0.0
 40
0.0900000000000034
100
AcDbArc
 50
180.0
 51
0.0
  0
ARC
  5
3C8
330
1F
100
AcDbEntity
  8
0
  6
Continuous
 62
     7
100
AcDbCircle
 10
40.7730618012736
 20
131.3347921415243
 30
0.0
 40
0.0900000000000034
100
AcDbArc
 50
270.0
 51
90.0
  0
ARC
  5
3C9
330
1F
100
AcDbEntity
  8
0
  6
Continuous
 62
     7
100
AcDbCircle
 10
38.61306180127363
 20
131.7811748770772
 30
0.0
 40
0.0899999999999963
100
AcDbArc
 50
0.0
 51
180.0
  0
ARC
  5
3CA
330
1F
100
AcDbEntity
  8
0
  6
Continuous
 62
     7
100
AcDbCircle
 10
38.97306180127356
 20
131.9888671847695
 30
0.0
 40
0.0900000000000034
100
AcDbArc
 50
0.0
 51
180.0
  0
ARC
  5
3CB
330
1F
100
AcDbEntity
  8
0
  6
Continuous
 62
     7
100
AcDbCircle
 10
39.31460267864193
 20
132.2072208157737
 30
0.0
 40
0.0715408773682915
100
AcDbArc
 50
29.99999999995442
 51
180.0
  0
ARC
  5
3CC
330
1F
100
AcDbEntity
  8
0
  6
Continuous
 62
     7
100
AcDbCircle
 10
39.33306180127357
 20
130.8886401111352
 30
0.0
 40
0.0900000000000034
100
AcDbArc
 50
180.0
 51
0.0
  0
ARC
  5
3CD
330
1F
100
AcDbEntity
  8
0
  6
Continuous
 62
     7
100
AcDbCircle
 10
39.69306180127356
 20
131.4247921415243
 30
0.0
 40
0.0450000000000047
100
AcDbArc
 50
210.0000000000082
 51
329.9999999999737
  0
ARC
  5
3CE
330
1F
100
AcDbEntity
  8
0
  6
Continuous
 62
     7
100
AcDbCircle
 10
39.60306180127361
 20
130.3172555598176
 30
0.0
 40
0.090000000000027
100
AcDbArc
 50
240.018360631138
 51
60.01836063115881
  0
ARC
  5
3CF
330
1F
100
AcDbEntity
  8
0
  6
Continuous
 62
     7
100
AcDbCircle
 10
41.94301181515479
 20
131.3347921415243
 30
0.0
 40
0.0450000000000258
100
AcDbArc
 50
299.9816393688529
 51
60.01836063114706
  0
ARC
  5
3D0
330
1F
100
AcDbEntity
  8
0
  6
Continuous
 62
     7
100
AcDbCircle
 10
40.7730618012736
 20
131.7811748770772
 30
0.0
 40
0.0899999999999948
100
AcDbArc
 50
240.0183606312097
 51
60.01836063116544
  0
ARC
  5
3D1
330
1F
100
AcDbEntity
  8
0
  6
Continuous
 62
     7
100
AcDbCircle
 10
40.41306180127359
 20
131.9888671847695
 30
0.0
 40
0.089999999999995
100
AcDbArc
 50
60.01836063117328
 51
180.0
  0
ARC
  5
3D2
330
1F
100
AcDbEntity
  8
0
  6
Continuous
 62
     7
100
AcDbCircle
 10
40.07152092390527
 20
132.2072208157737
 30
0.0
 40
0.0715408773682782
100
AcDbArc
 50
0.0
 51
150.0000000000342
  0
ARC
  5
3D3
330
1F
100
AcDbEntity
  8
0
  6
Continuous
 62
     7
100
AcDbCircle
 10
40.41306180127359
 20
130.6807170982791
 30
0.0
 40
0.0900000000000105
100
AcDbArc
 50
180.0
 51
299.9816393688538
  0
ARC
  5
3D4
330
1F
100
AcDbEntity
  8
0
  6
Continuous
 62
     7
100
AcDbCircle
 10
40.7730618012736
 20
130.8884094059714
 30
0.0
 40
0.0900000000000021
100
AcDbArc
 50
299.9816393688346
 51
119.9816393687993
  0
ARC
  5
3D5
330
1F
100
AcDbEntity
  8
0
  6
Continuous
 62
     7
100
AcDbCircle
 10
40.05306180127354
 20
130.4730247905868
 30
0.0
 40
0.089999999999975
100
AcDbArc
 50
180.0
 51
0.0
  0
ARC
  5
3D6
330
1F
100
AcDbEntity
  8
0
  6
Continuous
 62
     7
100
AcDbCircle
 10
39.69306180127359
 20
77.66352197533111
 30
0.0
 40
2.800000000000002
100
AcDbArc
 50
216.7867892982617
 51
233.2132107017379
  0
ARC
  5
3D7
330
1F
100
AcDbEntity
  8
0
  6
Continuous
 62
     7
100
AcDbCircle
 10
39.69306180127359
 20
77.66352197533111
 30
0.0
 40
2.900000000000012
100
AcDbArc
 50
184.9454297178833
 51
219.8897626613292
  0
ARC
  5
3D8
330
1F
100
AcDbEntity
  8
0
  6
Continuous
 62
     7
100
AcDbCircle
 10
39.69306180127359
 20
77.66352197533111
 30
0.0
 40
2.900000000000019
100
AcDbArc
 50
140.1102373386708
 51
175.0545702821167
  0
ARC
  5
3D9
330
1F
100
AcDbEntity
  8
0
  6
Continuous
 62
     7
100
AcDbCircle
 10
47.44306180127359
 20
93.46352197533109
 30
0.0
 40
0.5
100
AcDbArc
 50
0.0
 51
90.0
  0
ARC
  5
3DA
330
1F
100
AcDbEntity
  8
0
  6
Continuous
 62
     7
100
AcDbCircle
 10
31.94306180127359
 20
93.46352197533112
 30
0.0
 40
0.5
100
AcDbArc
 50
90.0
 51
180.0
  0
ARC
  5
3DB
330
1F
100
AcDbEntity
  8
0
  6
Continuous
 62
     7
100
AcDbCircle
 10
39.69306180127359
 20
77.66352197533111
 30
0.0
 40
2.900000000000014
100
AcDbArc
 50
229.7806631068505
 51
264.8214847693774
  0
ARC
  5
3DC
330
1F
100
AcDbEntity
  8
0
  6
Continuous
 62
     7
100
AcDbCircle
 10
39.69306180127359
 20
77.66352197533111
 30
0.0
 40
2.900000000000002
100
AcDbArc
 50
95.1785152306226
 51
130.2193368931495
  0
ARC
  5
3DD
330
1F
100
AcDbEntity
  8
0
  6
Continuous
 62
     7
100
AcDbCircle
 10
39.69306180127359
 20
77.66352197533111
 30
0.0
 40
2.900000000000009
100
AcDbArc
 50
274.7124262251687
 51
309.8897626613291
  0
ARC
  5
3DE
330
1F
100
AcDbEntity
  8
0
  6
Continuous
 62
     7
100
AcDbCircle
 10
39.69306180127359
 20
77.66352197533111
 30
0.0
 40
2.800000000000014
100
AcDbArc
 50
36.78678929826228
 51
53.2132107017383
  0
ARC
  5
3DF
330
1F
100
AcDbEntity
  8
0
  6
Continuous
 62
     7
100
AcDbCircle
 10
39.69306180127359
 20
77.66352197533111
 30
0.0
 40
2.899999999999991
100
AcDbArc
 50
4.94542971788334
 51
40.21933689314938
  0
ARC
  5
3E0
330
1F
100
AcDbEntity
  8
0
  6
Continuous
 62
     7
100
AcDbCircle
 10
39.69306180127359
 20
77.66352197533111
 30
0.0
 40
2.899999999999992
100
AcDbArc
 50
50.11023733867052
 51
85.28757377483136
  0
ARC
  5
3E1
330
1F
100
AcDbEntity
  8
0
  6
Continuous
 62
     7
100
AcDbCircle
 10
39.69306180127359
 20
77.66352197533111
 30
0.0
 40
2.90000000000001
100
AcDbArc
 50
319.7806631068506
 51
355.0545702821166
  0
ARC
  5
3E2
330
1F
100
AcDbEntity
  8
0
  6
Continuous
 62
     7
100
AcDbCircle
 10
39.69306180127359
 20
77.66352197533111
 30
0.0
 40
2.799999999999992
100
AcDbArc
 50
53.2132107017383
 51
216.7867892982617
  0
ARC
  5
3E3
330
1F
100
AcDbEntity
  8
0
  6
Continuous
 62
     7
100
AcDbCircle
 10
39.69306180127359
 20
77.66352197533111
 30
0.0
 40
2.799999999999974
100
AcDbArc
 50
233.2132107017379
 51
36.78678929826228
  0
ARC
  5
3E4
330
1F
100
AcDbEntity
  8
0
  6
Continuous
 62
     7
100
AcDbCircle
 10
88.19306222820174
 20
60.66352197533111
 30
0.0
 40
2.99999999999998
100
AcDbArc
 50
56.44269023807864
 51
90.0
  0
ARC
  5
3E5
330
1F
100
AcDbEntity
  8
0
  6
Continuous
 62
     7
100
AcDbCircle
 10
87.89331996700889
 20
77.66352197533111
 30
0.0
 40
5.600000000000005
100
AcDbArc
 50
8.25595822582694
 51
29.99999999999969
  0
ARC
  5
3E6
330
1F
100
AcDbEntity
  8
0
  6
Continuous
 62
     7
100
AcDbCircle
 10
72.94306222820177
 20
93.46352197533109
 30
0.0
 40
0.5
100
AcDbArc
 50
90.0
 51
180.0
  0
ARC
  5
3E7
330
1F
100
AcDbEntity
  8
0
  6
Continuous
 62
     7
100
AcDbCircle
 10
73.19306222820171
 20
60.66352197533111
 30
0.0
 40
3.0
100
AcDbArc
 50
90.0
 51
123.5573097619208
  0
ARC
  5
3E8
330
1F
100
AcDbEntity
  8
0
  6
Continuous
 62
     7
100
AcDbCircle
 10
88.44306222820174
 20
93.46352197533109
 30
0.0
 40
0.5
100
AcDbArc
 50
0.0
 51
90.0
  0
ARC
  5
3E9
330
1F
100
AcDbEntity
  8
0
  6
Continuous
 62
     7
100
AcDbCircle
 10
87.89331996700889
 20
77.66352197533111
 30
0.0
 40
5.600000000000008
100
AcDbArc
 50
329.9999999999999
 51
351.7440417741728
  0
ARC
  5
3EA
330
1F
100
AcDbEntity
  8
0
  6
Continuous
 62
     7
100
AcDbCircle
 10
32.19306180127362
 20
48.26352159747874
 30
0.0
 40
3.0
100
AcDbArc
 50
90.0
 51
180.0
  0
ARC
  5
3EB
330
1F
100
AcDbEntity
  8
0
  6
Continuous
 62
     7
100
AcDbCircle
 10
32.19306180127362
 20
33.26352159747874
 30
0.0
 40
3.000000000000004
100
AcDbArc
 50
180.0
 51
270.0
  0
ARC
  5
3EC
330
1F
100
AcDbEntity
  8
0
  6
Continuous
 62
     7
100
AcDbCircle
 10
34.94306180127362
 20
36.01352159747874
 30
0.0
 40
3.500000000000004
100
AcDbArc
 50
180.0
 51
265.5309502894987
  0
ARC
  5
3ED
330
1F
100
AcDbEntity
  8
0
  6
Continuous
 62
     7
100
AcDbCircle
 10
34.94306180127362
 20
36.01352159747874
 30
0.0
 40
3.500000000000002
100
AcDbArc
 50
265.5309502894987
 51
270.0
  0
ARC
  5
3EE
330
1F
100
AcDbEntity
  8
0
  6
Continuous
 62
     7
100
AcDbCircle
 10
39.69306180127362
 20
33.56326385867158
 30
0.0
 40
5.600000000000008
100
AcDbArc
 50
278.2559582258269
 51
300.0000000000001
  0
ARC
  5
3EF
330
1F
100
AcDbEntity
  8
0
  6
Continuous
 62
     7
100
AcDbCircle
 10
39.69306180127362
 20
33.56326385867158
 30
0.0
 40
5.6
100
AcDbArc
 50
240.0000000000001
 51
261.744041774173
  0
ARC
  5
3F0
330
1F
100
AcDbEntity
  8
0
  6
Continuous
 62
     7
100
AcDbCircle
 10
34.94306180127362
 20
45.51352159747874
 30
0.0
 40
3.5
100
AcDbArc
 50
90.0
 51
180.0
  0
ARC
  5
3F1
330
1F
100
AcDbEntity
  8
0
  6
Continuous
 62
     7
100
AcDbCircle
 10
37.59306180127362
 20
46.06352159747874
 30
0.0
 40
1.0
100
AcDbArc
 50
180.0
 51
270.0
  0
ARC
  5
3F2
330
1F
100
AcDbEntity
  8
0
  6
Continuous
 62
     7
100
AcDbCircle
 10
41.79306180127361
 20
46.06352159747874
 30
0.0
 40
1.0
100
AcDbArc
 50
270.0
 51
0.0
  0
ARC
  5
3F3
330
1F
100
AcDbEntity
  8
0
  6
Continuous
 62
     7
100
AcDbCircle
 10
44.44306180127362
 20
45.51352159747874
 30
0.0
 40
3.5
100
AcDbArc
 50
0.0
 51
90.0
  0
ARC
  5
3F4
330
1F
100
AcDbEntity
  8
0
  6
Continuous
 62
     7
100
AcDbCircle
 10
42.36650237211927
 20
39.56352159747873
 30
0.0
 40
0.1999999999999957
100
AcDbArc
 50
90.0
 51
200.0000000000056
  0
ARC
  5
3F5
330
1F
100
AcDbEntity
  8
0
  6
Continuous
 62
     7
100
AcDbCircle
 10
37.01962123042793
 20
39.56352159747873
 30
0.0
 40
0.2000000000000061
100
AcDbArc
 50
339.9999999999959
 51
90.0
  0
ARC
  5
3F6
330
1F
100
AcDbEntity
  8
0
  6
Continuous
 62
     7
100
AcDbCircle
 10
39.69306180127362
 20
38.13732599764182
 30
0.0
 40
1.099999999999989
100
AcDbArc
 50
20.00000000000048
 51
159.9999999999996
  0
ARC
  5
3F7
330
1F
100
AcDbEntity
  8
0
  6
Continuous
 62
     7
100
AcDbCircle
 10
39.69306180127362
 20
40.76352159747874
 30
0.0
 40
2.499999999999996
100
AcDbArc
 50
294.6296813298556
 51
23.57817847820255
  0
ARC
  5
3F8
330
1F
100
AcDbEntity
  8
0
  6
Continuous
 62
     7
100
AcDbCircle
 10
39.69306180127362
 20
40.76352159747874
 30
0.0
 40
2.50000000000001
100
AcDbArc
 50
156.4218215217979
 51
245.3703186701435
  0
ARC
  5
3F9
330
1F
100
AcDbEntity
  8
0
  6
Continuous
 62
     7
100
AcDbCircle
 10
39.69306180127362
 20
40.76352159747874
 30
0.0
 40
2.5
100
AcDbArc
 50
126.869897645844
 51
156.4218215217979
  0
ARC
  5
3FA
330
1F
100
AcDbEntity
  8
0
  6
Continuous
 62
     7
100
AcDbCircle
 10
39.69306180127362
 20
40.76352159747874
 30
0.0
 40
2.499999999999964
100
AcDbArc
 50
23.57817847820255
 51
53.13010235415597
  0
ARC
  5
3FB
330
1F
100
AcDbEntity
  8
0
  6
Continuous
 62
     7
100
AcDbCircle
 10
47.19306180127362
 20
48.26352159747874
 30
0.0
 40
2.999999999999972
100
AcDbArc
 50
0.0
 51
90.0
  0
ARC
  5
3FC
330
1F
100
AcDbEntity
  8
0
  6
Continuous
 62
     7
100
AcDbCircle
 10
47.19306180127362
 20
33.26352159747874
 30
0.0
 40
3.000000000000014
100
AcDbArc
 50
270.0
 51
359.9999999999998
  0
ARC
  5
3FD
330
1F
100
AcDbEntity
  8
0
  6
Continuous
 62
     7
100
AcDbCircle
 10
44.44306180127362
 20
36.01352159747874
 30
0.0
 40
3.5
100
AcDbArc
 50
270.0
 51
274.4690497105006
  0
ARC
  5
3FE
330
1F
100
AcDbEntity
  8
0
  6
Continuous
 62
     7
100
AcDbCircle
 10
44.44306180127362
 20
36.01352159747874
 30
0.0
 40
3.499999999999999
100
AcDbArc
 50
274.4690497105006
 51
0.0
  0
CIRCLE
  5
3FF
330
1F
100
AcDbEntity
  8
1
  6
Continuous
 62
     7
100
AcDbCircle
 10
55.19083464465083
 20
4.19798408144603
 30
0.0
 40
1.247468231122646
  0
CIRCLE
  5
400
330
1F
100
AcDbEntity
  8
0
  6
Continuous
 62
     7
100
AcDbCircle
 10
39.69306180127356
 20
118.3135215976239
 30
0.0
 40
2.099999999999994
  0
CIRCLE
  5
401
330
1F
100
AcDbEntity
  8
0
  6
Continuous
 62
     7
100
AcDbCircle
 10
39.69306180127356
 20
118.3135215976239
 30
0.0
 40
2.599999999999994
  0
CIRCLE
  5
402
330
1F
100
AcDbEntity
  8
0
  6
Continuous
 62
     7
100
AcDbCircle
 10
34.69306180127359
 20
122.5135215976237
 30
0.0
 40
2.100000000000037
  0
CIRCLE
  5
403
330
1F
100
AcDbEntity
  8
0
  6
Continuous
 62
     7
100
AcDbCircle
 10
34.90084867722928
 20
127.8643667226936
 30
0.0
 40
2.100000000000015
  0
CIRCLE
  5
404
330
1F
100
AcDbEntity
  8
0
  6
Continuous
 62
     7
100
AcDbCircle
 10
34.90084867722928
 20
127.8643667226936
 30
0.0
 40
2.600000000000023
  0
CIRCLE
  5
405
330
1F
100
AcDbEntity
  8
0
  6
Continuous
 62
     7
100
AcDbCircle
 10
34.69306180127359
 20
122.5135215976237
 30
0.0
 40
2.600000000000016
  0
CIRCLE
  5
406
330
1F
100
AcDbEntity
  8
0
  6
Continuous
 62
     7
100
AcDbCircle
 10
37.79300629682683
 20
121.1135849438564
 30
0.0
 40
0.5650571070219712
  0
CIRCLE
  5
407
330
1F
100
AcDbEntity
  8
0
  6
Continuous
 62
     7
100
AcDbCircle
 10
37.79300629682683
 20
121.1135849438564
 30
0.0
 40
0.6497291070219617
  0
CIRCLE
  5
408
330
1F
100
AcDbEntity
  8
0
  6
Continuous
 62
     7
100
AcDbCircle
 10
44.69306180127356
 20
122.5135215976237
 30
0.0
 40
2.100000000000016
  0
CIRCLE
  5
409
330
1F
100
AcDbEntity
  8
0
  6
Continuous
 62
     7
100
AcDbCircle
 10
44.48527492531775
 20
127.8643667226935
 30
0.0
 40
2.099999999999976
  0
CIRCLE
  5
40A
330
1F
100
AcDbEntity
  8
0
  6
Continuous
 62
     7
100
AcDbCircle
 10
44.48527492531775
 20
127.8643667226935
 30
0.0
 40
2.599999999999994
  0
CIRCLE
  5
40B
330
1F
100
AcDbEntity
  8
0
  6
Continuous
 62
     7
100
AcDbCircle
 10
44.69306180127356
 20
122.5135215976237
 30
0.0
 40
2.599999999999994
  0
CIRCLE
  5
40C
330
1F
100
AcDbEntity
  8
0
  6
Continuous
 62
     7
100
AcDbCircle
 10
39.69306180127362
 20
35.21352159747875
 30
0.0
 40
1.0
  0
CIRCLE
  5
40D
330
1F
100
AcDbEntity
  8
0
  6
Continuous
 62
     7
100
AcDbCircle
 10
39.69306180127362
 20
35.21352159747875
 30
0.0
 40
1.700000000000024
  0
CIRCLE
  5
40E
330
1F
100
AcDbEntity
  8
0
  6
Continuous
 62
     7
100
AcDbCircle
 10
44.69306180127362
 20
37.66352159747873
 30
0.0
 40
1.0
  0
CIRCLE
  5
40F
330
1F
100
AcDbEntity
  8
0
  6
Continuous
 62
     7
100
AcDbCircle
 10
44.69306180127362
 20
37.66352159747873
 30
0.0
 40
1.199999999999982
  0
CIRCLE
  5
410
330
1F
100
AcDbEntity
  8
0
  6
Continuous
 62
     7
100
AcDbCircle
 10
44.69306180127362
 20
43.86352159747874
 30
0.0
 40
1.0
  0
CIRCLE
  5
411
330
1F
100
AcDbEntity
  8
0
  6
Continuous
 62
     7
100
AcDbCircle
 10
44.69306180127362
 20
43.86352159747874
 30
0.0
 40
1.199999999999982
  0
CIRCLE
  5
412
330
1F
100
AcDbEntity
  8
0
  6
Continuous
 62
     7
100
AcDbCircle
 10
34.69306180127362
 20
37.66352159747873
 30
0.0
 40
1.0
  0
CIRCLE
  5
413
330
1F
100
AcDbEntity
  8
0
  6
Continuous
 62
     7
100
AcDbCircle
 10
39.69306180127362
 20
38.13732599764182
 30
0.0
 40
0.7476419582490408
  0
CIRCLE
  5
414
330
1F
100
AcDbEntity
  8
0
  6
Continuous
 62
     7
100
AcDbCircle
 10
39.69306180127362
 20
38.13732599764182
 30
0.0
 40
0.6502100605478418
  0
CIRCLE
  5
415
330
1F
100
AcDbEntity
  8
0
  6
Continuous
 62
     7
100
AcDbCircle
 10
34.69306180127362
 20
37.66352159747873
 30
0.0
 40
1.20000000000001
  0
CIRCLE
  5
416
330
1F
100
AcDbEntity
  8
0
  6
Continuous
 62
     7
100
AcDbCircle
 10
34.69306180127362
 20
43.86352159747874
 30
0.0
 40
1.0
  0
CIRCLE
  5
417
330
1F
100
AcDbEntity
  8
0
  6
Continuous
 62
     7
100
AcDbCircle
 10
34.69306180127362
 20
43.86352159747874
 30
0.0
 40
1.20000000000001
  0
SPLINE
  5
418
330
1F
100
AcDbEntity
  8
0
  6
Continuous
 62
     7
100
AcDbSpline
210
0.0
220
0.0
230
1.0
 70
     8
 71
     3
 72
     9
 73
     5
 74
     3
 42
0.000000001
 43
0.0000000001
 44
0.00000001
 40
0.0
 40
0.0
 40
0.0
 40
0.0
 40
0.1890725145901209
 40
0.3802777736714046
 40
0.3802777736714046
 40
0.3802777736714046
 40
0.3802777736714046
 10
40.85978799023138
 20
137.8078127676288
 30
0.0
 10
40.91944830708795
 20
137.7873842442051
 30
0.0
 10
41.03944190418956
 20
137.7462967442069
 30
0.0
 10
41.15515856327374
 20
137.6943683828352
 30
0.0
 10
41.21334138082466
 20
137.6682585757154
 30
0.0
 11
40.85978799023138
 21
137.8078127676288
 31
0.0
 11
41.03771166268875
 21
137.7438472873398
 31
0.0
 11
41.21334138082466
 21
137.6682585757154
 31
0.0
  0
SPLINE
  5
419
330
1F
100
AcDbEntity
  8
0
  6
Continuous
 62
     7
100
AcDbSpline
210
0.0
220
0.0
230
1.0
 70
     8
 71
     3
 72
     9
 73
     5
 74
     3
 42
0.000000001
 43
0.0000000001
 44
0.00000001
 40
0.0
 40
0.0
 40
0.0
 40
0.0
 40
0.1902526066967056
 40
0.3762299641297004
 40
0.3762299641297004
 40
0.3762299641297004
 40
0.3762299641297004
 10
38.52633561231579
 20
137.8078127676288
 30
0.0
 10
38.58600952346961
 20
137.8296831497648
 30
0.0
 10
38.70401639304233
 20
137.8729324360469
 30
0.0
 10
38.82775870789848
 20
137.8948896613155
 30
0.0
 10
38.88892680127358
 20
137.9057435100589
 30
0.0
 11
38.52633561231579
 21
137.8078127676288
 31
0.0
 11
38.7068239825108
 21
137.8679792267423
 31
0.0
 11
38.88892680127358
 21
137.9057435100589
 31
0.0
  0
SPLINE
  5
41A
330
1F
100
AcDbEntity
  8
0
  6
Continuous
 62
     7
100
AcDbSpline
210
0.0
220
0.0
230
1.0
 70
     8
 71
     3
 72
    11
 73
     7
 74
     5
 42
0.000000001
 43
0.0000000001
 44
0.00000001
 40
0.0
 40
0.0
 40
0.0
 40
0.0
 40
0.2561079272248539
 40
0.4961970519622388
 40
0.75349705180734
 40
0.9923954452692845
 40
0.9923954452692845
 40
0.9923954452692845
 40
0.9923954452692845
 10
36.80385775863485
 20
136.8421795303342
 30
0.0
 10
36.86433937377147
 20
136.7819309347007
 30
0.0
 10
36.98151966613096
 20
136.6652021274659
 30
0.0
 10
37.15952407290227
 20
136.4880055320693
 30
0.0
 10
37.33351130289515
 20
136.3149046147289
 30
0.0
 10
37.45082901483932
 20
136.1983132848445
 30
0.0
 10
37.50731250183415
 20
136.1421795303342
 30
0.0
 11
36.80385775863485
 21
136.8421795303342
 31
0.0
 11
36.98531330521685
 21
136.6614444894541
 31
0.0
 11
37.15546582078451
 21
136.4920605785751
 31
0.0
 11
37.33787696153892
 21
136.3105958005841
 31
0.0
 11
37.50731250183415
 21
136.1421795303342
 31
0.0
  0
SPLINE
  5
41B
330
1F
100
AcDbEntity
  8
0
  6
Continuous
 62
     7
100
AcDbSpline
210
0.0
220
0.0
230
1.0
 70
     8
 71
     3
 72
     9
 73
     5
 74
     3
 42
0.000000001
 43
0.0000000001
 44
0.00000001
 40
0.0
 40
0.0
 40
0.0
 40
0.0
 40
0.4206786595505719
 40
0.8549809765869304
 40
0.8549809765869304
 40
0.8549809765869304
 40
0.8549809765869304
 10
38.73846764667175
 20
137.6682585757154
 30
0.0
 10
38.61318944333981
 20
137.6045576388835
 30
0.0
 10
38.35857591836034
 20
137.4750927963362
 30
0.0
 10
38.13160599618618
 20
137.3016333302634
 30
0.0
 10
38.01631271952164
 20
137.2135215976238
 30
0.0
 11
38.73846764667175
 21
137.6682585757154
 31
0.0
 11
38.36932545379792
 21
137.4665048234507
 31
0.0
 11
38.01631271952164
 21
137.2135215976238
 31
0.0
  0
SPLINE
  5
41C
330
1F
100
AcDbEntity
  8
0
  6
Continuous
 62
     7
100
AcDbSpline
210
0.0
220
0.0
230
1.0
 70
     8
 71
     3
 72
     9
 73
     5
 74
     3
 42
0.000000001
 43
0.0000000001
 44
0.00000001
 40
0.0
 40
0.0
 40
0.0
 40
0.0
 40
0.4343023170363585
 40
0.8549809765869054
 40
0.8549809765869054
 40
0.8549809765869054
 40
0.8549809765869054
 10
37.45062729457243
 20
137.2135215976238
 30
0.0
 10
37.56592057123697
 20
137.3016333302633
 30
0.0
 10
37.79289049341114
 20
137.4750927963362
 30
0.0
 10
38.04750401839056
 20
137.6045576388834
 30
0.0
 10
38.17278222172251
 20
137.6682585757154
 30
0.0
 11
37.45062729457243
 21
137.2135215976238
 31
0.0
 11
37.8036400288487
 21
137.4665048234507
 31
0.0
 11
38.17278222172251
 21
137.6682585757154
 31
0.0
  0
SPLINE
  5
41D
330
1F
100
AcDbEntity
  8
0
  6
Continuous
 62
     7
100
AcDbSpline
210
0.0
220
0.0
230
1.0
 70
     8
 71
     3
 72
     9
 73
     5
 74
     3
 42
0.000000001
 43
0.0000000001
 44
0.00000001
 40
0.0
 40
0.0
 40
0.0
 40
0.0
 40
0.2832433754466912
 40
0.5664867508933824
 40
0.5664867508933824
 40
0.5664867508933824
 40
0.5664867508933824
 10
41.21334138082466
 20
137.6682585757154
 30
0.0
 10
41.11906047684343
 20
137.6757886825338
 30
0.0
 10
40.93049866835004
 20
137.6908488762273
 30
0.0
 10
40.74193685985664
 20
137.6757886825338
 30
0.0
 10
40.64765595587542
 20
137.6682585757154
 30
0.0
 11
41.21334138082466
 21
137.6682585757154
 31
0.0
 11
40.93049866835004
 21
137.6833187893806
 31
0.0
 11
40.64765595587542
 21
137.6682585757154
 31
0.0
  0
SPLINE
  5
41E
330
1F
100
AcDbEntity
  8
0
  6
Continuous
 62
     7
100
AcDbSpline
210
0.0
220
0.0
230
1.0
 70
     8
 71
     3
 72
     9
 73
     5
 74
     3
 42
0.000000001
 43
0.0000000001
 44
0.00000001
 40
0.0
 40
0.0
 40
0.0
 40
0.0
 40
0.3051721720337057
 40
0.6093837263159237
 40
0.6093837263159237
 40
0.6093837263159237
 40
0.6093837263159237
 10
39.09202103726503
 20
137.8078127676288
 30
0.0
 10
39.19144555058696
 20
137.8297280916965
 30
0.0
 10
39.3899816133686
 20
137.8734897353518
 30
0.0
 10
39.59214129756896
 20
137.8950035630293
 30
0.0
 10
39.69306180127359
 20
137.9057435100589
 30
0.0
 11
39.09202103726503
 21
137.8078127676288
 31
0.0
 11
39.39120334290372
 21
137.8679792267423
 31
0.0
 11
39.69306180127359
 21
137.9057435100589
 31
0.0
  0
SPLINE
  5
41F
330
1F
100
AcDbEntity
  8
0
  6
Continuous
 62
     7
100
AcDbSpline
210
0.0
220
0.0
230
1.0
 70
     8
 71
     3
 72
    11
 73
     7
 74
     5
 42
0.000000001
 43
0.0000000001
 44
0.00000001
 40
0.0
 40
0.0
 40
0.0
 40
0.0
 40
0.2216799576698028
 40
0.4294668147281907
 40
0.6521137528833828
 40
0.8588306003803566
 40
0.8588306003803566
 40
0.8588306003803566
 40
0.8588306003803566
 10
37.46795052409073
 20
136.8421795303342
 30
0.0
 10
37.51073009109827
 20
136.7819289588934
 30
0.0
 10
37.59360816104407
 20
136.6652038413599
 30
0.0
 10
37.71951390816305
 20
136.4880090200454
 30
0.0
 10
37.84257946252826
 20
136.3149146977612
 30
0.0
 10
37.92557597005478
 20
136.1983159154708
 30
0.0
 10
37.96553457753311
 20
136.1421795302856
 30
0.0
 11
37.46795052409073
 21
136.8421795303342
 31
0.0
 11
37.59630002015855
 21
136.6614354834294
 31
0.0
 11
37.71665249536852
 21
136.4920523092994
 31
0.0
 11
37.84567381502192
 21
136.3105994004033
 31
0.0
 11
37.96553457753311
 21
136.1421795302856
 31
0.0
  0
SPLINE
  5
420
330
1F
100
AcDbEntity
  8
0
  6
Continuous
 62
     7
100
AcDbSpline
210
0.0
220
0.0
230
1.0
 70
     8
 71
     3
 72
    11
 73
     7
 74
     5
 42
0.000000001
 43
0.0000000001
 44
0.00000001
 40
0.0
 40
0.0
 40
0.0
 40
0.0
 40
0.2220556956620068
 40
0.429555191809021
 40
0.6526894188056379
 40
0.8589902338103209
 40
0.8589902338103209
 40
0.8589902338103209
 40
0.8589902338103209
 10
37.55410977931305
 20
136.8421795303342
 30
0.0
 10
37.59697257245756
 20
136.7818344470491
 30
0.0
 10
37.67988842803481
 20
136.6651000311293
 30
0.0
 10
37.80594587810977
 20
136.4877776117488
 30
0.0
 10
37.92901687610399
 20
136.3147755507028
 30
0.0
 10
38.01207033869642
 20
136.1981881657237
 30
0.0
 10
38.05196927085351
 20
136.1421795303141
 30
0.0
 11
37.55410977931305
 21
136.8421795303342
 31
0.0
 11
37.68271058121454
 21
136.6611531076052
 31
0.0
 11
37.80293509878038
 21
136.492031535123
 31
0.0
 11
37.93229009494745
 21
136.3102179816501
 31
0.0
 11
38.05196927085351
 21
136.1421795303141
 31
0.0
  0
SPLINE
  5
421
330
1F
100
AcDbEntity
  8
0
  6
Continuous
 62
     7
100
AcDbSpline
210
0.0
220
0.0
230
1.0
 70
     8
 71
     3
 72
    11
 73
     7
 74
     5
 42
0.000000001
 43
0.0000000001
 44
0.00000001
 40
0.0
 40
0.0
 40
0.0
 40
0.0
 40
0.2216200606038707
 40
0.4293654773714012
 40
0.6519739132915261
 40
0.8586410184122141
 40
0.8586410184122141
 40
0.8586410184122141
 40
0.8586410184122141
 10
37.82048706484457
 20
136.8421795303342
 30
0.0
 10
37.86324042342011
 20
136.781934839622
 30
0.0
 10
37.94607055541709
 20
136.6652171181804
 30
0.0
 10
38.07189848272102
 20
136.4880241958021
 30
0.0
 10
38.19488320821372
 20
136.3149254627502
 30
0.0
 10
38.2778168941895
 20
136.1983180833147
 30
0.0
 10
38.31774385425655
 20
136.1421795303342
 30
0.0
 11
37.82048706484457
 21
136.8421795303342
 31
0.0
 11
37.94875657719147
 21
136.6614521570221
 31
0.0
 11
38.06903669528526
 21
136.4920684170103
 31
0.0
 11
38.19797613514818
 21
136.3106045456958
 31
0.0
 11
38.31774385425655
 21
136.1421795303342
 31
0.0
  0
SPLINE
  5
422
330
1F
100
AcDbEntity
  8
0
  6
Continuous
 62
     7
100
AcDbSpline
210
0.0
220
0.0
230
1.0
 70
     8
 71
     3
 72
    11
 73
     7
 74
     5
 42
0.000000001
 43
0.0000000001
 44
0.00000001
 40
0.0
 40
0.0
 40
0.0
 40
0.0
 40
0.2066659476423189
 40
0.4292755410402699
 40
0.637019626227467
 40
0.8586410184122154
 40
0.8586410184122154
 40
0.8586410184122154
 40
0.8586410184122154
 10
41.41018164118367
 20
136.1421795303342
 30
0.0
 10
41.45010837766367
 20
136.1983177688776
 30
0.0
 10
41.53304206370464
 20
136.3149251482666
 30
0.0
 10
41.65602653225383
 20
136.4880235193903
 30
0.0
 10
41.78185468309082
 20
136.665216756244
 30
0.0
 10
41.86468481512293
 20
136.7819344776609
 30
0.0
 10
41.90743843059565
 20
136.8421795303342
 30
0.0
 11
41.41018164118367
 21
136.1421795303342
 31
0.0
 11
41.52994868968415
 21
136.3106036022758
 31
0.0
 11
41.65888880015402
 21
136.4920684170103
 31
0.0
 11
41.77916814742773
 21
136.6614510712309
 31
0.0
 11
41.90743843059565
 21
136.8421795303342
 31
0.0
  0
SPLINE
  5
423
330
1F
100
AcDbEntity
  8
0
  6
Continuous
 62
     7
100
AcDbSpline
210
0.0
220
0.0
230
1.0
 70
     8
 71
     3
 72
    11
 73
     7
 74
     5
 42
0.000000001
 43
0.0000000001
 44
0.00000001
 40
0.0
 40
0.0
 40
0.0
 40
0.0
 40
0.2062586909507026
 40
0.4293378893418123
 40
0.6367906124437297
 40
0.8587804029413321
 40
0.8587804029413321
 40
0.8587804029413321
 40
0.8587804029413321
 10
41.32382653147312
 20
136.1421795303342
 30
0.0
 10
41.36369271291447
 20
136.1981942479416
 30
0.0
 10
41.4466761718521
 20
136.3147917224925
 30
0.0
 10
41.56965766365603
 20
136.4877985605589
 30
0.0
 10
41.6956267644385
 20
136.6651151842155
 30
0.0
 10
41.77848988233778
 20
136.7818409828881
 30
0.0
 10
41.82132393564913
 20
136.8421795303342
 30
0.0
 11
41.32382653147312
 21
136.1421795303342
 31
0.0
 11
41.44340967803885
 21
136.3102346363302
 31
0.0
 11
41.57266662271545
 21
136.4920503975002
 31
0.0
 11
41.69281091802638
 21
136.661171598501
 31
0.0
 11
41.82132393564913
 21
136.8421795303342
 31
0.0
  0
SPLINE
  5
424
330
1F
100
AcDbEntity
  8
0
  6
Continuous
 62
     7
100
AcDbSpline
210
0.0
220
0.0
230
1.0
 70
     8
 71
     3
 72
    11
 73
     7
 74
     5
 42
0.000000001
 43
0.0000000001
 44
0.00000001
 40
0.0
 40
0.0
 40
0.0
 40
0.0
 40
0.2067272098971421
 40
0.429363785643284
 40
0.6371514726137821
 40
0.8588306003710786
 40
0.8588306003710786
 40
0.8588306003710786
 40
0.8588306003710786
 10
41.0552841367365
 20
136.1421795302856
 30
0.0
 10
41.09524474692741
 20
136.1983187297524
 30
0.0
 10
41.17824125372265
 20
136.3149175125601
 30
0.0
 10
41.30130696706604
 20
136.4880120612393
 30
0.0
 10
41.42721071340999
 20
136.665204066891
 30
0.0
 10
41.51008878332625
 20
136.7819291844451
 30
0.0
 10
41.55286819016294
 20
136.8421795303342
 30
0.0
 11
41.0552841367365
 21
136.1421795302856
 31
0.0
 11
41.17515090583899
 21
136.3106078443481
 31
0.0
 11
41.30416621888583
 21
136.4920523092994
 31
0.0
 11
41.42451917469306
 21
136.6614361600241
 31
0.0
 11
41.55286819016294
 21
136.8421795303342
 31
0.0
  0
SPLINE
  5
425
330
1F
100
AcDbEntity
  8
0
  6
Continuous
 62
     7
100
AcDbSpline
210
0.0
220
0.0
230
1.0
 70
     8
 71
     3
 72
    11
 73
     7
 74
     5
 42
0.000000001
 43
0.0000000001
 44
0.00000001
 40
0.0
 40
0.0
 40
0.0
 40
0.0
 40
0.2388983934704054
 40
0.4961983933070456
 40
0.7362875172468368
 40
0.9923954452692945
 40
0.9923954452692945
 40
0.9923954452692945
 40
0.9923954452692945
 10
41.87881110071299
 20
136.1421795303342
 30
0.0
 10
41.9352945877098
 20
136.1983132848465
 30
0.0
 10
42.05261229965399
 20
136.3149046147309
 30
0.0
 10
42.2265995294584
 20
136.4880055318837
 30
0.0
 10
42.40460393622777
 20
136.6652021272783
 30
0.0
 10
42.52178422858731
 20
136.7819309345132
 30
0.0
 10
42.5822658439123
 20
136.8421795303342
 30
0.0
 11
41.87881110071299
 21
136.1421795303342
 31
0.0
 11
42.04824664101422
 21
136.3105958005901
 31
0.0
 11
42.23065778176263
 21
136.4920605785751
 31
0.0
 11
42.4008102967651
 21
136.6614444888913
 31
0.0
 11
42.5822658439123
 21
136.8421795303342
 31
0.0
  0
SPLINE
  5
426
330
1F
100
AcDbEntity
  8
0
  6
Continuous
 62
     7
100
AcDbSpline
210
0.0
220
0.0
230
1.0
 70
     8
 71
     3
 72
     9
 73
     5
 74
     3
 42
0.000000001
 43
0.0000000001
 44
0.00000001
 40
0.0
 40
0.0
 40
0.0
 40
0.0
 40
0.1084259445463795
 40
0.216198995009687
 40
0.216198995009687
 40
0.216198995009687
 40
0.216198995009687
 10
38.88892680127358
 20
137.7337848210806
 30
0.0
 10
38.92255031450435
 20
137.7470593851686
 30
0.0
 10
38.98959488174136
 20
137.773528560943
 30
0.0
 10
39.05794778896447
 20
137.796407735751
 30
0.0
 10
39.09202103726503
 20
137.8078127676288
 30
0.0
 11
38.88892680127358
 21
137.7337848210806
 31
0.0
 11
38.99012640806556
 21
137.7727055748535
 31
0.0
 11
39.09202103726503
 21
137.8078127676288
 31
0.0
  0
SPLINE
  5
427
330
1F
100
AcDbEntity
  8
0
  6
Continuous
 62
     7
100
AcDbSpline
210
0.0
220
0.0
230
1.0
 70
     8
 71
     3
 72
     9
 73
     5
 74
     3
 42
0.000000001
 43
0.0000000001
 44
0.00000001
 40
0.0
 40
0.0
 40
0.0
 40
0.0
 40
0.0818495641759575
 40
0.1641224441635499
 40
0.1641224441635499
 40
0.1641224441635499
 40
0.1641224441635499
 10
40.49719680127359
 20
137.7337848210806
 30
0.0
 10
40.52242074150606
 20
137.7233789951593
 30
0.0
 10
40.5729990692025
 20
137.7025135072876
 30
0.0
 10
40.62272757530623
 20
137.6796965094022
 30
0.0
 10
40.64765595587542
 20
137.6682585757154
 30
0.0
 11
40.49719680127359
 21
137.7337848210806
 31
0.0
 11
40.57265725726695
 21
137.7020819701315
 31
0.0
 11
40.64765595587542
 21
137.6682585757154
 31
0.0
  0
SPLINE
  5
428
330
1F
100
AcDbEntity
  8
0
  6
Continuous
 62
     7
100
AcDbSpline
210
0.0
220
0.0
230
1.0
 70
     8
 71
     3
 72
     9
 73
     5
 74
     3
 42
0.000000001
 43
0.0000000001
 44
0.00000001
 40
0.0
 40
0.0
 40
0.0
 40
0.0
 40
0.1859773574330018
 40
0.3762299641297073
 40
0.3762299641297073
 40
0.3762299641297073
 40
0.3762299641297073
 10
40.49719680127359
 20
137.9057435100589
 30
0.0
 10
40.55836489464868
 20
137.8948896613155
 30
0.0
 10
40.68210720950484
 20
137.8729324360469
 30
0.0
 10
40.80011407907757
 20
137.8296831497648
 30
0.0
 10
40.85978799023138
 20
137.8078127676288
 30
0.0
 11
40.49719680127359
 21
137.9057435100589
 31
0.0
 11
40.67929962003637
 21
137.8679792267423
 31
0.0
 11
40.85978799023138
 21
137.8078127676288
 31
0.0
  0
SPLINE
  5
429
330
1F
100
AcDbEntity
  8
0
  6
Continuous
 62
     7
100
AcDbSpline
210
0.0
220
0.0
230
1.0
 70
     8
 71
     3
 72
     9
 73
     5
 74
     3
 42
0.000000001
 43
0.0000000001
 44
0.00000001
 40
0.0
 40
0.0
 40
0.0
 40
0.0
 40
0.1077730504633344
 40
0.2161989950097338
 40
0.2161989950097338
 40
0.2161989950097338
 40
0.2161989950097338
 10
40.29410256528209
 20
137.8078127676288
 30
0.0
 10
40.32817581358266
 20
137.796407735751
 30
0.0
 10
40.39652872080578
 20
137.773528560943
 30
0.0
 10
40.46357328804281
 20
137.7470593851686
 30
0.0
 10
40.49719680127359
 20
137.7337848210806
 30
0.0
 11
40.29410256528209
 21
137.8078127676288
 31
0.0
 11
40.39599719448158
 21
137.7727055748535
 31
0.0
 11
40.49719680127359
 21
137.7337848210806
 31
0.0
  0
SPLINE
  5
42A
330
1F
100
AcDbEntity
  8
0
  6
Continuous
 62
     7
100
AcDbSpline
210
0.0
220
0.0
230
1.0
 70
     8
 71
     3
 72
     9
 73
     5
 74
     3
 42
0.000000001
 43
0.0000000001
 44
0.00000001
 40
0.0
 40
0.0
 40
0.0
 40
0.0
 40
0.0822728799875794
 40
0.1641224441635435
 40
0.1641224441635435
 40
0.1641224441635435
 40
0.1641224441635435
 10
38.73846764667175
 20
137.6682585757154
 30
0.0
 10
38.76339602724093
 20
137.6796965094021
 30
0.0
 10
38.81312453334466
 20
137.7025135072877
 30
0.0
 10
38.86370286104109
 20
137.7233789951593
 30
0.0
 10
38.88892680127358
 20
137.7337848210806
 30
0.0
 11
38.73846764667175
 21
137.6682585757154
 31
0.0
 11
38.8134663452802
 21
137.7020819701315
 31
0.0
 11
38.88892680127358
 21
137.7337848210806
 31
0.0
  0
SPLINE
  5
42B
330
1F
100
AcDbEntity
  8
0
  6
Continuous
 62
     7
100
AcDbSpline
210
0.0
220
0.0
230
1.0
 70
     8
 71
     3
 72
     9
 73
     5
 74
     3
 42
0.000000001
 43
0.0000000001
 44
0.00000001
 40
0.0
 40
0.0
 40
0.0
 40
0.0
 40
0.1912052590812819
 40
0.3802777736714132
 40
0.3802777736714132
 40
0.3802777736714132
 40
0.3802777736714132
 10
38.17278222172251
 20
137.6682585757154
 30
0.0
 10
38.23096503927344
 20
137.6943683828353
 30
0.0
 10
38.34668169835758
 20
137.746296744207
 30
0.0
 10
38.46667529545922
 20
137.7873842442051
 30
0.0
 10
38.52633561231579
 20
137.8078127676288
 30
0.0
 11
38.17278222172251
 21
137.6682585757154
 31
0.0
 11
38.3484119398584
 21
137.7438472873398
 31
0.0
 11
38.52633561231579
 21
137.8078127676288
 31
0.0
  0
SPLINE
  5
42C
330
1F
100
AcDbEntity
  8
0
  6
Continuous
 62
     7
100
AcDbSpline
210
0.0
220
0.0
230
1.0
 70
     8
 71
     3
 72
     9
 73
     5
 74
     3
 42
0.000000001
 43
0.0000000001
 44
0.00000001
 40
0.0
 40
0.0
 40
0.0
 40
0.0
 40
0.3042115542821546
 40
0.6093837263158534
 40
0.6093837263158534
 40
0.6093837263158534
 40
0.6093837263158534
 10
39.69306180127359
 20
137.9057435100589
 30
0.0
 10
39.7939823049782
 20
137.8950035630293
 30
0.0
 10
39.99614198917854
 20
137.8734897353517
 30
0.0
 10
40.19467805196015
 20
137.8297280916965
 30
0.0
 10
40.29410256528209
 20
137.8078127676288
 30
0.0
 11
39.69306180127359
 21
137.9057435100589
 31
0.0
 11
39.99492025964341
 21
137.8679792267423
 31
0.0
 11
40.29410256528209
 21
137.8078127676288
 31
0.0
  0
SPLINE
  5
42D
330
1F
100
AcDbEntity
  8
0
  6
Continuous
 62
     7
100
AcDbSpline
210
0.0
220
0.0
230
1.0
 70
     8
 71
     3
 72
    13
 73
     9
 74
     7
 42
0.000000001
 43
0.0000000001
 44
0.00000001
 40
0.0
 40
0.0
 40
0.0
 40
0.0
 40
0.1295579829276328
 40
0.2515112378136676
 40
0.3590272891450739
 40
0.4469724843081087
 40
0.5134665562717525
 40
0.5635543703585337
 40
0.5635543703585337
 40
0.5635543703585337
 40
0.5635543703585337
 10
42.91055475599174
 20
93.46352197533109
 30
0.0
 10
42.90940255202172
 20
93.50674002554867
 30
0.0
 10
42.90716577975143
 20
93.59063933496202
 30
0.0
 10
42.88920868007516
 20
93.70908777574165
 30
0.0
 10
42.86200418398059
 20
93.81219708615174
 30
0.0
 10
42.82593564118514
 20
93.89073894178935
 30
0.0
 10
42.78380777509054
 20
93.9494650133648
 30
0.0
 10
42.74516988381487
 20
93.959297561038
 30
0.0
 10
42.72856963885863
 20
93.96352197533109
 30
0.0
 11
42.91055475599174
 21
93.46352197533109
 31
0.0
 11
42.90435371663267
 21
93.59293146338103
 31
0.0
 11
42.88617337340658
 21
93.71352197533109
 31
0.0
 11
42.85725251495087
 21
93.81707527166499
 31
0.0
 11
42.81956219742518
 21
93.89653467722331
 31
0.0
 11
42.77567084054044
 21
93.94648475971493
 31
0.0
 11
42.72856963885863
 21
93.96352197533109
 31
0.0
  0
SPLINE
  5
42E
330
1F
100
AcDbEntity
  8
0
  6
Continuous
 62
     7
100
AcDbSpline
210
0.0
220
0.0
230
1.0
 70
     8
 71
     3
 72
    21
 73
    17
 74
    15
 42
0.000000001
 43
0.0000000001
 44
0.00000001
 40
0.0
 40
0.0
 40
0.0
 40
0.0
 40
0.0158608623884849
 40
0.0356108414770165
 40
0.0541189218769834
 40
0.078638991408647
 40
0.1042982309972027
 40
0.1329319448804657
 40
0.1677964924786615
 40
0.1999905260461857
 40
0.2791626598061489
 40
0.3676228481340687
 40
0.4106884019700725
 40
0.4634993104280918
 40
0.5175715953778323
 40
0.563267128283487
 40
0.563267128283487
 40
0.563267128283487
 40
0.563267128283487
 10
44.5371348794647
 20
93.96352197533109
 30
0.0
 10
44.5424331453892
 20
93.96313421945631
 30
0.0
 10
44.5543288223303
 20
93.96226362838443
 30
0.0
 10
44.57125452314838
 20
93.95515148384874
 30
0.0
 10
44.58862694616447
 20
93.94338628646369
 30
0.0
 10
44.60504376520846
 20
93.92723079202247
 30
0.0
 10
44.62102685805375
 20
93.90631563693275
 30
0.0
 10
44.63641100681141
 20
93.88082896184994
 30
0.0
 10
44.65030405045214
 20
93.85207032609199
 30
0.0
 10
44.66827421974912
 20
93.80673064452833
 30
0.0
 10
44.68689629316604
 20
93.7426145981825
 30
0.0
 10
44.70002315465831
 20
93.67353632298898
 30
0.0
 10
44.70802505231558
 20
93.61260320522636
 30
0.0
 10
44.71258219833267
 20
93.56281583534198
 30
0.0
 10
44.71532497071689
 20
93.51201173071681
 30
0.0
 10
44.71563964887403
 20
93.47875443903415
 30
0.0
 10
44.71578377898035
 20
93.46352197533109
 30
0.0
 11
44.5371348794647
 21
93.96352197533109
 31
0.0
 11
44.55287924156857
 21
93.96160303512637
 31
0.0
 11
44.57127565722641
 21
93.95441739663751
 31
0.0
 11
44.58666297827939
 21
93.9441324879636
 31
0.0
 11
44.60433763498378
 21
93.92713718623646
 31
0.0
 11
44.62005683871827
 21
93.9068565751825
 31
0.0
 11
44.63498252751083
 21
93.88242067199944
 31
0.0
 11
44.65028762836965
 21
93.85109511459027
 31
0.0
 11
44.66222472779509
 21
93.82119592659173
 31
0.0
 11
44.68487568412785
 21
93.74533314981768
 31
0.0
 11
44.70172728891981
 21
93.65849290389149
 31
0.0
 11
44.70735019431038
 21
93.61579600867614
 31
0.0
 11
44.71221989901747
 21
93.56321009769626
 31
0.0
 11
44.71504117373146
 21
93.50921146403064
 31
0.0
 11
44.71578377898035
 21
93.46352197533109
 31
0.0
  0
SPLINE
  5
42F
330
1F
100
AcDbEntity
  8
0
  6
Continuous
 62
     7
100
AcDbSpline
210
0.0
220
0.0
230
1.0
 70
     8
 71
     3
 72
    21
 73
    17
 74
    15
 42
0.000000001
 43
0.0000000001
 44
0.00000001
 40
0.0
 40
0.0
 40
0.0
 40
0.0
 40
0.0456881860129847
 40
0.0997493435490285
 40
0.1441849834058551
 40
0.1957558398643192
 40
0.2450974914783345
 40
0.2846038040843097
 40
0.3287112605208901
 40
0.3633826153563274
 40
0.4299823827417599
 40
0.4845627733418036
 40
0.5072655198896345
 40
0.5275281424930094
 40
0.5458594153465388
 40
0.563188694531265
 40
0.563188694531265
 40
0.563188694531265
 40
0.563188694531265
 10
34.67033982356679
 20
93.46352197533109
 30
0.0
 10
34.67048381825563
 20
93.47875193700273
 30
0.0
 10
34.67079819303869
 20
93.5120029546909
 30
0.0
 10
34.67339116681415
 20
93.56001313903835
 30
0.0
 10
34.67779988537485
 20
93.60984793331187
 30
0.0
 10
34.68393562099561
 20
93.6579231165331
 30
0.0
 10
34.69190497262393
 20
93.70406359764523
 30
0.0
 10
34.7013969325584
 20
93.74736547438255
 30
0.0
 10
34.71169404695371
 20
93.78545035249289
 30
0.0
 10
34.72694686748015
 20
93.83146388359052
 30
0.0
 10
34.74750537382815
 20
93.87932815620536
 30
0.0
 10
34.77386618303355
 20
93.91992323946575
 30
0.0
 10
34.7970221116721
 20
93.94296550232339
 30
0.0
 10
34.81389368357563
 20
93.95462587572051
 30
0.0
 10
34.83127968393214
 20
93.96211361250056
 30
0.0
 10
34.84319733080372
 20
93.96306139831998
 30
0.0
 10
34.84898872308247
 20
93.96352197533109
 30
0.0
 11
34.67033982356679
 21
93.46352197533109
 31
0.0
 11
34.67108218960915
 21
93.50920412006232
 31
0.0
 11
34.67390237229034
 21
93.56319166819499
 31
0.0
 11
34.6778542584526
 21
93.60745122862689
 31
0.0
 11
34.68441293275248
 21
93.6586033256137
 31
0.0
 11
34.69286427741871
 21
93.70721580705442
 31
0.0
 11
34.70136078658689
 21
93.74579764295775
 31
0.0
 11
34.71295666578371
 21
93.7883535272494
 31
0.0
 11
34.72391741659743
 21
93.8212467602592
 31
0.0
 11
34.75096855804925
 21
93.88210532334011
 31
0.0
 11
34.78179477066308
 21
93.92714712127973
 31
0.0
 11
34.79805552308754
 21
93.9429901827715
 31
0.0
 11
34.81480448968028
 21
93.95439395137576
 31
0.0
 11
34.83181080268415
 21
93.96123651925026
 31
0.0
 11
34.84898872308247
 21
93.96352197533109
 31
0.0
  0
SPLINE
  5
430
330
1F
100
AcDbEntity
  8
0
  6
Continuous
 62
     7
100
AcDbSpline
210
0.0
220
0.0
230
1.0
 70
     8
 71
     3
 72
    13
 73
     9
 74
     7
 42
0.000000001
 43
0.0000000001
 44
0.00000001
 40
0.0
 40
0.0
 40
0.0
 40
0.0
 40
0.1295579829276324
 40
0.2515112378136812
 40
0.3590272891450933
 40
0.4469724843081122
 40
0.5134665562717514
 40
0.5635543703585326
 40
0.5635543703585326
 40
0.5635543703585326
 40
0.5635543703585326
 10
36.4755688465554
 20
93.46352197533109
 30
0.0
 10
36.4767210505254
 20
93.50674002554867
 30
0.0
 10
36.47895782279571
 20
93.59063933496202
 30
0.0
 10
36.49691492247197
 20
93.70908777574162
 30
0.0
 10
36.52411941856654
 20
93.8121970861518
 30
0.0
 10
36.560187961362
 20
93.89073894178935
 30
0.0
 10
36.60231582745661
 20
93.94946501336482
 30
0.0
 10
36.64095371873226
 20
93.959297561038
 30
0.0
 10
36.65755396368851
 20
93.96352197533109
 30
0.0
 11
36.4755688465554
 21
93.46352197533109
 31
0.0
 11
36.48176988591446
 21
93.59293146338103
 31
0.0
 11
36.49995022914055
 21
93.7135219753311
 31
0.0
 11
36.52887108759628
 21
93.817075271665
 31
0.0
 11
36.56656140512196
 21
93.89653467722331
 31
0.0
 11
36.61045276200669
 21
93.94648475971493
 31
0.0
 11
36.65755396368851
 21
93.96352197533109
 31
0.0
  0
SPLINE
  5
431
330
1F
100
AcDbEntity
  8
0
  6
Continuous
 62
     7
100
AcDbSpline
210
0.0
220
0.0
230
1.0
 70
     8
 71
     3
 72
     9
 73
     5
 74
     3
 42
0.000000001
 43
0.0000000001
 44
0.00000001
 40
0.0
 40
0.0
 40
0.0
 40
0.0
 40
0.4343023170363833
 40
0.8549809765869048
 40
0.8549809765869048
 40
0.8549809765869048
 40
0.8549809765869048
 10
92.74306222820175
 20
75.98677289357919
 30
0.0
 10
92.8311739608413
 20
76.10206617024373
 30
0.0
 10
93.00463342691418
 20
76.32903609241785
 30
0.0
 10
93.13409826946146
 20
76.58364961739731
 30
0.0
 10
93.19779920629338
 20
76.70892782072924
 30
0.0
 11
92.74306222820175
 21
75.98677289357919
 31
0.0
 11
92.99604545402872
 21
76.33978562785546
 31
0.0
 11
93.19779920629338
 21
76.70892782072924
 31
0.0
  0
SPLINE
  5
432
330
1F
100
AcDbEntity
  8
0
  6
Continuous
 62
     7
100
AcDbSpline
210
0.0
220
0.0
230
1.0
 70
     8
 71
     3
 72
     9
 73
     5
 74
     3
 42
0.000000001
 43
0.0000000001
 44
0.00000001
 40
0.0
 40
0.0
 40
0.0
 40
0.0
 40
0.3042115542822004
 40
0.6093837263159341
 40
0.6093837263159341
 40
0.6093837263159341
 40
0.6093837263159341
 10
93.43528414063678
 20
77.66352197533111
 30
0.0
 10
93.42454419360726
 20
77.56260147162651
 30
0.0
 10
93.40303036592974
 20
77.36044178742608
 30
0.0
 10
93.35926872227445
 20
77.16190572464447
 30
0.0
 10
93.33735339820677
 20
77.06248121132252
 30
0.0
 11
93.43528414063678
 21
77.66352197533111
 31
0.0
 11
93.39751985732026
 21
77.36166351696123
 31
0.0
 11
93.33735339820677
 21
77.06248121132252
 31
0.0
  0
SPLINE
  5
433
330
1F
100
AcDbEntity
  8
0
  6
Continuous
 62
     7
100
AcDbSpline
210
0.0
220
0.0
230
1.0
 70
     8
 71
     3
 72
    11
 73
     7
 74
     5
 42
0.000000001
 43
0.0000000001
 44
0.00000001
 40
0.0
 40
0.0
 40
0.0
 40
0.0
 40
0.2216791286717143
 40
0.429466814727845
 40
0.6521033888039188
 40
0.8588306003711017
 40
0.8588306003711017
 40
0.8588306003711017
 40
0.8588306003711017
 10
92.37172016091216
 20
75.80371558644173
 30
0.0
 10
92.31146981477461
 20
75.84649499345487
 30
0.0
 10
92.19474469722034
 20
75.92937306337114
 30
0.0
 10
92.01755269202269
 20
76.05527680939281
 30
0.0
 10
91.8444581435916
 20
76.17834252255938
 30
0.0
 10
91.72785936078392
 20
76.26133902935447
 30
0.0
 10
91.67172016086354
 20
76.30129963986816
 30
0.0
 11
92.37172016091216
 21
75.80371558644173
 31
0.0
 11
92.19097678985652
 21
75.9320646024411
 31
0.0
 11
92.02159293987731
 21
76.05241755771884
 31
0.0
 11
91.8401484762869
 21
76.18143286979762
 31
0.0
 11
91.67172016086354
 21
76.30129963986816
 31
0.0
  0
SPLINE
  5
434
330
1F
100
AcDbEntity
  8
0
  6
Continuous
 62
     7
100
AcDbSpline
210
0.0
220
0.0
230
1.0
 70
     8
 71
     3
 72
    11
 73
     7
 74
     5
 42
0.000000001
 43
0.0000000001
 44
0.00000001
 40
0.0
 40
0.0
 40
0.0
 40
0.0
 40
0.2560478881910568
 40
0.4960841493396143
 40
0.7532993582034053
 40
0.9921690928339594
 40
0.9921690928339594
 40
0.9921690928339594
 40
0.9921690928339594
 10
92.37172016091216
 20
80.55371879408789
 30
0.0
 10
92.31147493858596
 20
80.49326206891394
 30
0.0
 10
92.194751862243
 20
80.37612919212806
 30
0.0
 10
92.01756445118512
 20
80.198208633646
 30
0.0
 10
91.84446166924235
 20
80.02430147234708
 30
0.0
 10
91.72786337200041
 20
79.90704401033294
 30
0.0
 10
91.67172016087423
 20
79.85058339448592
 30
0.0
 11
92.37172016091216
 21
80.55371879408789
 31
0.0
 11
92.19099424130349
 21
80.37233890813408
 31
0.0
 11
92.02161212920751
 21
80.20225920102756
 31
0.0
 11
91.84016340559774
 21
80.01995170152915
 31
0.0
 11
91.67172016087423
 21
79.85058339448592
 31
0.0
  0
SPLINE
  5
435
330
1F
100
AcDbEntity
  8
0
  6
Continuous
 62
     7
100
AcDbSpline
210
0.0
220
0.0
230
1.0
 70
     8
 71
     3
 72
     9
 73
     5
 74
     3
 42
0.000000001
 43
0.0000000001
 44
0.00000001
 40
0.0
 40
0.0
 40
0.0
 40
0.0
 40
0.2832433754466935
 40
0.566486750893387
 40
0.566486750893387
 40
0.566486750893387
 40
0.566486750893387
 10
93.19779920629338
 20
78.61811612993294
 30
0.0
 10
93.20532931311183
 20
78.71239703391416
 30
0.0
 10
93.2203895068053
 20
78.90095884240756
 30
0.0
 10
93.20532931311185
 20
79.08952065090098
 30
0.0
 10
93.19779920629338
 20
79.18380155488218
 30
0.0
 11
93.19779920629338
 21
78.61811612993294
 31
0.0
 11
93.21285941995856
 21
78.90095884240756
 31
0.0
 11
93.19779920629338
 21
79.18380155488218
 31
0.0
  0
SPLINE
  5
436
330
1F
100
AcDbEntity
  8
0
  6
Continuous
 62
     7
100
AcDbSpline
210
0.0
220
0.0
230
1.0
 70
     8
 71
     3
 72
     9
 73
     5
 74
     3
 42
0.000000001
 43
0.0000000001
 44
0.00000001
 40
0.0
 40
0.0
 40
0.0
 40
0.0
 40
0.191205259081279
 40
0.3802777736714028
 40
0.3802777736714028
 40
0.3802777736714028
 40
0.3802777736714028
 10
93.19779920629338
 20
79.18380155488218
 30
0.0
 10
93.2239090134132
 20
79.12561873733125
 30
0.0
 10
93.27583737478486
 20
79.00990207824705
 30
0.0
 10
93.31692487478303
 20
78.88990848114545
 30
0.0
 10
93.33735339820677
 20
78.8302481642889
 30
0.0
 11
93.19779920629338
 21
79.18380155488218
 31
0.0
 11
93.27338791791776
 21
79.00817183674627
 31
0.0
 11
93.33735339820677
 21
78.8302481642889
 31
0.0
  0
SPLINE
  5
437
330
1F
100
AcDbEntity
  8
0
  6
Continuous
 62
     7
100
AcDbSpline
210
0.0
220
0.0
230
1.0
 70
     8
 71
     3
 72
     9
 73
     5
 74
     3
 42
0.000000001
 43
0.0000000001
 44
0.00000001
 40
0.0
 40
0.0
 40
0.0
 40
0.0
 40
0.4206786595505464
 40
0.8549809765869296
 40
0.8549809765869296
 40
0.8549809765869296
 40
0.8549809765869296
 10
93.19779920629338
 20
76.14324239578004
 30
0.0
 10
93.13409826946143
 20
76.01796419244808
 30
0.0
 10
93.00463342691424
 20
75.76335066746867
 30
0.0
 10
92.83117396084127
 20
75.53638074529447
 30
0.0
 10
92.74306222820175
 20
75.42108746862995
 30
0.0
 11
93.19779920629338
 21
76.14324239578004
 31
0.0
 11
92.99604545402872
 21
75.77410020290623
 31
0.0
 11
92.74306222820175
 21
75.42108746862995
 31
0.0
  0
SPLINE
  5
438
330
1F
100
AcDbEntity
  8
0
  6
Continuous
 62
     7
100
AcDbSpline
210
0.0
220
0.0
230
1.0
 70
     8
 71
     3
 72
    11
 73
     7
 74
     5
 42
0.000000001
 43
0.0000000001
 44
0.00000001
 40
0.0
 40
0.0
 40
0.0
 40
0.0
 40
0.2216213872765135
 40
0.4293654773719968
 40
0.6519750709951808
 40
0.858641018412232
 40
0.858641018412232
 40
0.858641018412232
 40
0.858641018412232
 10
92.37172016091216
 20
79.8778986046532
 30
0.0
 10
92.31147510957314
 20
79.8351449901274
 30
0.0
 10
92.1947573881561
 20
79.7523148580954
 30
0.0
 10
92.01756415124069
 20
79.62648670721546
 30
0.0
 10
91.84446577878337
 20
79.50350223771869
 30
0.0
 10
91.72785839939435
 20
79.42056855167765
 30
0.0
 10
91.67172016091217
 20
79.38064181524119
 30
0.0
 11
92.37172016091216
 21
79.8778986046532
 31
0.0
 11
92.19099170581113
 21
79.74962832432652
 31
0.0
 11
92.02160904758821
 21
79.62934897421154
 31
0.0
 11
91.84014423267016
 21
79.50040886361117
 31
0.0
 11
91.67172016091217
 21
79.38064181524119
 31
0.0
  0
SPLINE
  5
439
330
1F
100
AcDbEntity
  8
0
  6
Continuous
 62
     7
100
AcDbSpline
210
0.0
220
0.0
230
1.0
 70
     8
 71
     3
 72
    11
 73
     7
 74
     5
 42
0.000000001
 43
0.0000000001
 44
0.00000001
 40
0.0
 40
0.0
 40
0.0
 40
0.0
 40
0.2219897922608976
 40
0.429442513599496
 40
0.6525217113179378
 40
0.8587804029413157
 40
0.8587804029413157
 40
0.8587804029413157
 40
0.8587804029413157
 10
92.37172016091216
 20
79.79178410970663
 30
0.0
 10
92.31138161298679
 20
79.74895005605502
 30
0.0
 10
92.19465581431425
 20
79.66608693815569
 30
0.0
 10
92.01733919084066
 20
79.54011783750289
 30
0.0
 10
91.84433235325315
 20
79.41713634603954
 30
0.0
 10
91.72773487870221
 20
79.33415288710198
 30
0.0
 10
91.67172016091217
 20
79.29428670553064
 30
0.0
 11
92.37172016091216
 21
79.79178410970663
 31
0.0
 11
92.19071222764136
 21
79.6632710910629
 31
0.0
 11
92.02159102807818
 21
79.54312679677297
 31
0.0
 11
91.83977526745633
 21
79.41386985248624
 31
0.0
 11
91.67172016091217
 21
79.29428670553064
 31
0.0
  0
SPLINE
  5
43A
330
1F
100
AcDbEntity
  8
0
  6
Continuous
 62
     7
100
AcDbSpline
210
0.0
220
0.0
230
1.0
 70
     8
 71
     3
 72
    11
 73
     7
 74
     5
 42
0.000000001
 43
0.0000000001
 44
0.00000001
 40
0.0
 40
0.0
 40
0.0
 40
0.0
 40
0.2067272087188697
 40
0.4293637856432568
 40
0.6371514762818772
 40
0.8588306003711018
 40
0.8588306003711018
 40
0.8588306003711018
 40
0.8588306003711018
 10
91.67172016086354
 20
79.02574431079402
 30
0.0
 10
91.72785936001036
 20
79.06570492075724
 30
0.0
 10
91.8444581428179
 20
79.14870142755254
 30
0.0
 10
92.01755269249362
 20
79.27176714160458
 30
0.0
 10
92.19474469846571
 20
79.39767088817553
 30
0.0
 10
92.31146981602004
 20
79.48054895809172
 30
0.0
 10
92.37172016091216
 20
79.52332836422046
 30
0.0
 11
91.67172016086354
 21
79.02574431079402
 31
0.0
 11
91.84014847396591
 21
79.14561107921354
 31
0.0
 11
92.02159293987731
 21
79.27462639294335
 31
0.0
 11
92.19097679359245
 21
79.39497935087476
 31
0.0
 11
92.37172016091216
 21
79.52332836422046
 31
0.0
  0
SPLINE
  5
43B
330
1F
100
AcDbEntity
  8
0
  6
Continuous
 62
     7
100
AcDbSpline
210
0.0
220
0.0
230
1.0
 70
     8
 71
     3
 72
    11
 73
     7
 74
     5
 42
0.000000001
 43
0.0000000001
 44
0.00000001
 40
0.0
 40
0.0
 40
0.0
 40
0.0
 40
0.206665944996064
 40
0.4292755410402352
 40
0.6370196294222099
 40
0.858641018412232
 40
0.858641018412232
 40
0.858641018412232
 40
0.858641018412232
 10
91.67172016091217
 20
75.946402135421
 30
0.0
 10
91.72785839873669
 20
75.90647539945218
 30
0.0
 10
91.84446577812558
 20
75.82354171341099
 30
0.0
 10
92.01756415011714
 20
75.70055724424476
 30
0.0
 10
92.19475738769036
 20
75.5747290928974
 30
0.0
 10
92.31147510910735
 20
75.49189896086534
 30
0.0
 10
92.37172016091216
 20
75.44914534600899
 30
0.0
 11
91.67172016091217
 21
75.946402135421
 31
0.0
 11
91.84014423069688
 21
75.82663508845364
 31
0.0
 11
92.02160904758821
 21
75.69769497645065
 31
0.0
 11
92.1909917044139
 21
75.57741562732757
 31
0.0
 11
92.37172016091216
 21
75.44914534600899
 31
0.0
  0
SPLINE
  5
43C
330
1F
100
AcDbEntity
  8
0
  6
Continuous
 62
     7
100
AcDbSpline
210
0.0
220
0.0
230
1.0
 70
     8
 71
     3
 72
    11
 73
     7
 74
     5
 42
0.000000001
 43
0.0000000001
 44
0.00000001
 40
0.0
 40
0.0
 40
0.0
 40
0.0
 40
0.2062586917123834
 40
0.4293378893418363
 40
0.6367906111764925
 40
0.8587804029413322
 40
0.8587804029413322
 40
0.8587804029413322
 40
0.8587804029413322
 10
91.67172016091217
 20
76.03275724513158
 30
0.0
 10
91.72773487872638
 20
75.992891063543
 30
0.0
 10
91.84433235327735
 20
75.90990760460551
 30
0.0
 10
92.01733919099958
 20
75.78692611304629
 30
0.0
 10
92.1946558144491
 20
75.6609570124108
 30
0.0
 10
92.31138161312158
 20
75.57809389451144
 30
0.0
 10
92.37172016091216
 20
75.53525984095556
 30
0.0
 11
91.67172016091217
 21
76.03275724513158
 31
0.0
 11
91.83977526752886
 21
75.91317409812439
 31
0.0
 11
92.02159102807818
 21
75.78391715388922
 31
0.0
 11
92.1907122280458
 21
75.66377285931206
 31
0.0
 11
92.37172016091216
 21
75.53525984095556
 31
0.0
  0
SPLINE
  5
43D
330
1F
100
AcDbEntity
  8
0
  6
Continuous
 62
     7
100
AcDbSpline
210
0.0
220
0.0
230
1.0
 70
     8
 71
     3
 72
    11
 73
     7
 74
     5
 42
0.000000001
 43
0.0000000001
 44
0.00000001
 40
0.0
 40
0.0
 40
0.0
 40
0.0
 40
0.238968441433482
 40
0.4963170841050928
 40
0.7364584251855906
 40
0.9926330901344986
 40
0.9926330901344986
 40
0.9926330901344986
 40
0.9926330901344986
 10
91.67172016087363
 20
79.84789514707971
 30
0.0
 10
91.72785337377339
 20
79.90441208648964
 30
0.0
 10
91.84443728328387
 20
80.02179294153137
 30
0.0
 10
92.01753537650275
 20
80.19586333506854
 30
0.0
 10
92.1947322206656
 20
80.37394631333228
 30
0.0
 10
92.31146714952969
 20
80.49117647152033
 30
0.0
 10
92.37172016091216
 20
80.55168508593472
 30
0.0
 11
91.67172016087363
 21
79.84789514707971
 31
0.0
 11
91.8401362783607
 21
80.01742959010878
 31
0.0
 11
92.02158943539084
 21
80.19992089316541
 31
0.0
 11
92.19097292259136
 21
80.37014750084288
 31
0.0
 11
92.37172016091216
 21
80.55168508593472
 31
0.0
  0
SPLINE
  5
43E
330
1F
100
AcDbEntity
  8
0
  6
Continuous
 62
     7
100
AcDbSpline
210
0.0
220
0.0
230
1.0
 70
     8
 71
     3
 72
    21
 73
    17
 74
    15
 42
0.000000001
 43
0.0000000001
 44
0.00000001
 40
0.0
 40
0.0
 40
0.0
 40
0.0
 40
0.094577473418533
 40
0.1890868710186067
 40
0.2407756814104718
 40
0.2845353999737427
 40
0.3287821758529291
 40
0.3813515229456474
 40
0.4343037163356623
 40
0.4790130946739459
 40
0.5285310799291516
 40
0.5781243449173956
 40
0.6235389112044906
 40
0.6777914678913881
 40
0.7234856748586315
 40
0.7780786382425022
 40
0.7780786382425022
 40
0.7780786382425022
 40
0.7780786382425022
 10
88.44158690810013
 20
93.96352197533109
 30
0.0
 10
88.47316017307757
 20
93.9617580140638
 30
0.0
 10
88.53628397552595
 20
93.95823134668936
 30
0.0
 10
88.61367110432126
 20
93.93400378431292
 30
0.0
 10
88.67096596541954
 20
93.90693670192584
 30
0.0
 10
88.71092421537871
 20
93.88287859115371
 30
0.0
 10
88.74878399876926
 20
93.85516840419835
 30
0.0
 10
88.78602619225263
 20
93.82177388010983
 30
0.0
 10
88.81958276654315
 20
93.78447114034056
 30
0.0
 10
88.84868392481239
 20
93.74489640389287
 30
0.0
 10
88.87335960674014
 20
93.70370072828408
 30
0.0
 10
88.89395150700759
 20
93.66006294964552
 30
0.0
 10
88.91091638522704
 20
93.6132177749334
 30
0.0
 10
88.92280458983757
 20
93.56616403138595
 30
0.0
 10
88.93084914681899
 20
93.5151758358879
 30
0.0
 10
88.93186677202164
 20
93.48172919978329
 30
0.0
 10
88.93242072552982
 20
93.46352197533109
 30
0.0
 11
88.44158690810013
 21
93.96352197533109
 31
0.0
 11
88.53571881880183
 21
93.95435234258173
 31
0.0
 11
88.62622496141393
 21
93.92713718623644
 31
0.0
 11
88.67292142505411
 21
93.90497475210111
 31
0.0
 11
88.71042111165369
 21
93.88242067199944
 31
0.0
 11
88.74612492091953
 21
93.85628611185778
 31
0.0
 11
88.78526844179095
 21
93.8211959265917
 31
0.0
 11
88.82068776925189
 21
93.78183343046042
 31
0.0
 11
88.84717834269492
 21
93.74581707190337
 31
0.0
 11
88.8726269182852
 21
93.70333883119812
 31
0.0
 11
88.89380083649169
 21
93.65849290389146
 31
0.0
 11
88.90925224287608
 21
93.61578767067121
 31
0.0
 11
88.92262904580616
 21
93.56321009769623
 31
0.0
 11
88.92951341885836
 21
93.51803747236862
 31
0.0
 11
88.93242072552982
 21
93.46352197533109
 31
0.0
  0
SPLINE
  5
43F
330
1F
100
AcDbEntity
  8
0
  6
Continuous
 62
     7
100
AcDbSpline
210
0.0
220
0.0
230
1.0
 70
     8
 71
     3
 72
     9
 73
     5
 74
     3
 42
0.000000001
 43
0.0000000001
 44
0.00000001
 40
0.0
 40
0.0
 40
0.0
 40
0.0
 40
0.082272879987582
 40
0.1641224441635264
 40
0.1641224441635264
 40
0.1641224441635264
 40
0.1641224441635264
 10
93.19779920629338
 20
78.61811612993294
 30
0.0
 10
93.20923713998012
 20
78.59318774936375
 30
0.0
 10
93.23205413786556
 20
78.54345924325999
 30
0.0
 10
93.25291962573725
 20
78.49288091556359
 30
0.0
 10
93.26332545165852
 20
78.46765697533111
 30
0.0
 11
93.19779920629338
 21
78.61811612993294
 31
0.0
 11
93.23162260070946
 21
78.54311743132446
 31
0.0
 11
93.26332545165852
 21
78.46765697533111
 31
0.0
  0
SPLINE
  5
440
330
1F
100
AcDbEntity
  8
0
  6
Continuous
 62
     7
100
AcDbSpline
210
0.0
220
0.0
230
1.0
 70
     8
 71
     3
 72
     9
 73
     5
 74
     3
 42
0.000000001
 43
0.0000000001
 44
0.00000001
 40
0.0
 40
0.0
 40
0.0
 40
0.0
 40
0.1902526066967078
 40
0.3762299641296882
 40
0.3762299641296882
 40
0.3762299641296882
 40
0.3762299641296882
 10
93.33735339820677
 20
78.8302481642889
 30
0.0
 10
93.35922378034283
 20
78.7705742531351
 30
0.0
 10
93.40247306662489
 20
78.65256738356238
 30
0.0
 10
93.4244302918934
 20
78.52882506870617
 30
0.0
 10
93.43528414063678
 20
78.46765697533111
 30
0.0
 11
93.33735339820677
 21
78.8302481642889
 31
0.0
 11
93.39751985732026
 21
78.64975979409388
 31
0.0
 11
93.43528414063678
 21
78.46765697533111
 31
0.0
  0
SPLINE
  5
441
330
1F
100
AcDbEntity
  8
0
  6
Continuous
 62
     7
100
AcDbSpline
210
0.0
220
0.0
230
1.0
 70
     8
 71
     3
 72
     9
 73
     5
 74
     3
 42
0.000000001
 43
0.0000000001
 44
0.00000001
 40
0.0
 40
0.0
 40
0.0
 40
0.0
 40
0.1084259445463948
 40
0.2161989950097003
 40
0.2161989950097003
 40
0.2161989950097003
 40
0.2161989950097003
 10
93.26332545165852
 20
78.46765697533111
 30
0.0
 10
93.27660001574648
 20
78.43403346210034
 30
0.0
 10
93.30306919152099
 20
78.36698889486334
 30
0.0
 10
93.32594836632897
 20
78.29863598764021
 30
0.0
 10
93.33735339820677
 20
78.26456273933967
 30
0.0
 11
93.26332545165852
 21
78.46765697533111
 31
0.0
 11
93.30224620543142
 21
78.36645736853913
 31
0.0
 11
93.33735339820677
 21
78.26456273933967
 31
0.0
  0
SPLINE
  5
442
330
1F
100
AcDbEntity
  8
0
  6
Continuous
 62
     7
100
AcDbSpline
210
0.0
220
0.0
230
1.0
 70
     8
 71
     3
 72
     9
 73
     5
 74
     3
 42
0.000000001
 43
0.0000000001
 44
0.00000001
 40
0.0
 40
0.0
 40
0.0
 40
0.0
 40
0.1859773574329665
 40
0.3762299641296608
 40
0.3762299641296608
 40
0.3762299641296608
 40
0.3762299641296608
 10
93.43528414063678
 20
76.85938697533108
 30
0.0
 10
93.42443029189344
 20
76.79821888195598
 30
0.0
 10
93.40247306662486
 20
76.67447656709984
 30
0.0
 10
93.35922378034282
 20
76.5564696975271
 30
0.0
 10
93.33735339820677
 20
76.49679578637331
 30
0.0
 11
93.43528414063678
 21
76.85938697533108
 31
0.0
 11
93.39751985732026
 21
76.67728415656832
 31
0.0
 11
93.33735339820677
 21
76.49679578637331
 31
0.0
  0
SPLINE
  5
443
330
1F
100
AcDbEntity
  8
0
  6
Continuous
 62
     7
100
AcDbSpline
210
0.0
220
0.0
230
1.0
 70
     8
 71
     3
 72
     9
 73
     5
 74
     3
 42
0.000000001
 43
0.0000000001
 44
0.00000001
 40
0.0
 40
0.0
 40
0.0
 40
0.0
 40
0.0818495641759389
 40
0.1641224441635267
 40
0.1641224441635267
 40
0.1641224441635267
 40
0.1641224441635267
 10
93.26332545165852
 20
76.85938697533108
 30
0.0
 10
93.25291962573726
 20
76.83416303509858
 30
0.0
 10
93.23205413786557
 20
76.78358470740218
 30
0.0
 10
93.20923713998013
 20
76.73385620129845
 30
0.0
 10
93.19779920629338
 20
76.70892782072924
 30
0.0
 11
93.26332545165852
 21
76.85938697533108
 31
0.0
 11
93.23162260070947
 21
76.78392651933773
 31
0.0
 11
93.19779920629338
 21
76.70892782072924
 31
0.0
  0
SPLINE
  5
444
330
1F
100
AcDbEntity
  8
0
  6
Continuous
 62
     7
100
AcDbSpline
210
0.0
220
0.0
230
1.0
 70
     8
 71
     3
 72
     9
 73
     5
 74
     3
 42
0.000000001
 43
0.0000000001
 44
0.00000001
 40
0.0
 40
0.0
 40
0.0
 40
0.0
 40
0.107773050463292
 40
0.2161989950097001
 40
0.2161989950097001
 40
0.2161989950097001
 40
0.2161989950097001
 10
93.33735339820677
 20
77.06248121132252
 30
0.0
 10
93.32594836632899
 20
77.02840796302196
 30
0.0
 10
93.30306919152096
 20
76.96005505579888
 30
0.0
 10
93.27660001574651
 20
76.89301048856184
 30
0.0
 10
93.26332545165852
 20
76.85938697533108
 30
0.0
 11
93.33735339820677
 21
77.06248121132252
 31
0.0
 11
93.30224620543142
 21
76.96058658212307
 31
0.0
 11
93.26332545165852
 21
76.85938697533108
 31
0.0
  0
SPLINE
  5
445
330
1F
100
AcDbEntity
  8
0
  6
Continuous
 62
     7
100
AcDbSpline
210
0.0
220
0.0
230
1.0
 70
     8
 71
     3
 72
     9
 73
     5
 74
     3
 42
0.000000001
 43
0.0000000001
 44
0.00000001
 40
0.0
 40
0.0
 40
0.0
 40
0.0
 40
0.1890725145901324
 40
0.3802777736714039
 40
0.3802777736714039
 40
0.3802777736714039
 40
0.3802777736714039
 10
93.33735339820677
 20
76.49679578637331
 30
0.0
 10
93.31692487478304
 20
76.43713546951676
 30
0.0
 10
93.27583737478486
 20
76.3171418724151
 30
0.0
 10
93.2239090134132
 20
76.20142521333096
 30
0.0
 10
93.19779920629338
 20
76.14324239578004
 30
0.0
 11
93.33735339820677
 21
76.49679578637331
 31
0.0
 11
93.27338791791777
 21
76.31887211391593
 31
0.0
 11
93.19779920629338
 21
76.14324239578004
 31
0.0
  0
SPLINE
  5
446
330
1F
100
AcDbEntity
  8
0
  6
Continuous
 62
     7
100
AcDbSpline
210
0.0
220
0.0
230
1.0
 70
     8
 71
     3
 72
     9
 73
     5
 74
     3
 42
0.000000001
 43
0.0000000001
 44
0.00000001
 40
0.0
 40
0.0
 40
0.0
 40
0.0
 40
0.3051721720337197
 40
0.609383726315906
 40
0.609383726315906
 40
0.609383726315906
 40
0.609383726315906
 10
93.33735339820677
 20
78.26456273933967
 30
0.0
 10
93.35926872227444
 20
78.1651382260177
 30
0.0
 10
93.40303036592974
 20
77.96660216323608
 30
0.0
 10
93.42454419360725
 20
77.76444247903574
 30
0.0
 10
93.43528414063678
 20
77.66352197533111
 30
0.0
 11
93.33735339820677
 21
78.26456273933967
 31
0.0
 11
93.39751985732026
 21
77.96538043370097
 31
0.0
 11
93.43528414063678
 21
77.66352197533111
 31
0.0
  0
SPLINE
  5
447
330
1F
100
AcDbEntity
  8
0
  6
Continuous
 62
     7
100
AcDbSpline
210
0.0
220
0.0
230
1.0
 70
     8
 71
     3
 72
    11
 73
     7
 74
     5
 42
0.000000001
 43
0.0000000001
 44
0.00000001
 40
0.0
 40
0.0
 40
0.0
 40
0.0
 40
0.2388697322246824
 40
0.4960849434943451
 40
0.7361212063251102
 40
0.9921690928339593
 40
0.9921690928339593
 40
0.9921690928339593
 40
0.9921690928339593
 10
91.67172016087423
 20
75.47646055617626
 30
0.0
 10
91.72786337143484
 20
75.41999994089782
 30
0.0
 10
91.8444616686767
 20
75.30274247888359
 30
0.0
 10
92.01756445101479
 20
75.128835317187
 30
0.0
 10
92.19475186263878
 20
74.95091475813686
 30
0.0
 10
92.31147493898172
 20
74.83378188135106
 30
0.0
 10
92.37172016091216
 20
74.7733251565743
 30
0.0
 11
91.67172016087423
 21
75.47646055617626
 31
0.0
 11
91.84016340390085
 21
75.30709225083855
 31
0.0
 11
92.02161212920751
 21
75.12478474963463
 31
0.0
 11
92.19099424249069
 21
74.95470504133631
 31
0.0
 11
92.37172016091216
 21
74.7733251565743
 31
0.0
  0
SPLINE
  5
448
330
1F
100
AcDbEntity
  8
0
  6
Continuous
 62
     7
100
AcDbSpline
210
0.0
220
0.0
230
1.0
 70
     8
 71
     3
 72
    11
 73
     7
 74
     5
 42
0.000000001
 43
0.0000000001
 44
0.00000001
 40
0.0
 40
0.0
 40
0.0
 40
0.0
 40
0.2561746681761627
 40
0.4963160060294461
 40
0.7536646498863943
 40
0.9926330901344986
 40
0.9926330901344986
 40
0.9926330901344986
 40
0.9926330901344986
 10
92.37172016091216
 20
74.77535886472744
 30
0.0
 10
92.31146714877063
 20
74.83586747990412
 30
0.0
 10
92.19473221990671
 20
74.95309763809233
 30
0.0
 10
92.01753537546553
 20
75.13118061663656
 30
0.0
 10
91.84443728300528
 20
75.305251009411
 30
0.0
 10
91.72785337349491
 20
75.4226318644528
 30
0.0
 10
91.67172016087363
 20
75.47914880358245
 30
0.0
 11
92.37172016091216
 21
74.77535886472744
 31
0.0
 11
92.19097292031468
 21
74.95689645210662
 31
0.0
 11
92.02158943539084
 21
75.1271230574968
 31
0.0
 11
91.84013627752509
 21
75.30961436139414
 31
0.0
 11
91.67172016087363
 21
75.47914880358245
 31
0.0
  0
SPLINE
  5
449
330
1F
100
AcDbEntity
  8
0
  6
Continuous
 62
     7
100
AcDbSpline
210
0.0
220
0.0
230
1.0
 70
     8
 71
     3
 72
    11
 73
     7
 74
     5
 42
0.000000001
 43
0.0000000001
 44
0.00000001
 40
0.0
 40
0.0
 40
0.0
 40
0.0
 40
0.2561079277995869
 40
0.4961970519622966
 40
0.7534970516436276
 40
0.9923954452692993
 40
0.9923954452692993
 40
0.9923954452692993
 40
0.9923954452692993
 10
36.80385775863488
 20
29.08486366476832
 30
0.0
 10
36.86433937390724
 20
29.14511226053695
 30
0.0
 10
36.98151966626676
 20
29.2618410677718
 30
0.0
 10
37.15952407299944
 20
29.4390376631299
 30
0.0
 10
37.33351130285649
 20
29.61213858033514
 30
0.0
 10
37.45082901480065
 20
29.72872991021953
 30
0.0
 10
37.50731250183418
 20
29.78486366476833
 30
0.0
 11
36.80385775863488
 21
29.08486366476832
 31
0.0
 11
36.98531330562415
 21
29.26559870605398
 31
0.0
 11
37.15546582078457
 21
29.43498261652747
 31
0.0
 11
37.33787696142285
 21
29.616447394403
 31
0.0
 11
37.50731250183418
 21
29.78486366476833
 31
0.0
  0
SPLINE
  5
44A
330
1F
100
AcDbEntity
  8
0
  6
Continuous
 62
     7
100
AcDbSpline
210
0.0
220
0.0
230
1.0
 70
     8
 71
     3
 72
    11
 73
     7
 74
     5
 42
0.000000001
 43
0.0000000001
 44
0.00000001
 40
0.0
 40
0.0
 40
0.0
 40
0.0
 40
0.2388983934704003
 40
0.4961983933070029
 40
0.7362875172468142
 40
0.9923954452692993
 40
0.9923954452692993
 40
0.9923954452692993
 40
0.9923954452692993
 10
41.87881110071305
 20
29.78486366476833
 30
0.0
 10
41.93529458770988
 20
29.72872991025602
 30
0.0
 10
42.05261229965402
 20
29.61213858037161
 30
0.0
 10
42.22659952945845
 20
29.43903766321882
 30
0.0
 10
42.40460393622782
 20
29.26184106782424
 30
0.0
 10
42.52178422858735
 20
29.1451122605894
 30
0.0
 10
42.58226584391235
 20
29.08486366476832
 30
0.0
 11
41.87881110071305
 21
29.78486366476833
 31
0.0
 11
42.04824664101427
 21
29.61644739451248
 31
0.0
 11
42.23065778176266
 21
29.43498261652747
 31
0.0
 11
42.40081029676514
 21
29.26559870621126
 31
0.0
 11
42.58226584391235
 21
29.08486366476832
 31
0.0
  0
SPLINE
  5
44B
330
1F
100
AcDbEntity
  8
0
  6
Continuous
 62
     7
100
AcDbSpline
210
0.0
220
0.0
230
1.0
 70
     8
 71
     3
 72
    11
 73
     7
 74
     5
 42
0.000000001
 43
0.0000000001
 44
0.00000001
 40
0.0
 40
0.0
 40
0.0
 40
0.0
 40
0.2063008156316408
 40
0.4294350419832696
 40
0.6369345372682307
 40
0.8589902337923341
 40
0.8589902337923341
 40
0.8589902337923341
 40
0.8589902337923341
 10
38.05196927085075
 20
29.78486366476833
 30
0.0
 10
38.01207033856972
 20
29.72885502919041
 30
0.0
 10
37.92901687597518
 20
29.61226764422013
 30
0.0
 10
37.80594587815203
 20
29.43926558341255
 30
0.0
 10
37.67988842820126
 20
29.2619431642076
 30
0.0
 10
37.59697257262401
 20
29.1452087482877
 30
0.0
 10
37.55410977931311
 20
29.08486366476832
 30
0.0
 11
38.05196927085075
 21
29.78486366476833
 31
0.0
 11
37.93229009457442
 21
29.61682521292632
 31
0.0
 11
37.80293509878044
 21
29.43501165997956
 31
0.0
 11
37.68271058171395
 21
29.26589008820009
 31
0.0
 11
37.55410977931311
 21
29.08486366476832
 31
0.0
  0
SPLINE
  5
44C
330
1F
100
AcDbEntity
  8
0
  6
Continuous
 62
     7
100
AcDbSpline
210
0.0
220
0.0
230
1.0
 70
     8
 71
     3
 72
    11
 73
     7
 74
     5
 42
0.000000001
 43
0.0000000001
 44
0.00000001
 40
0.0
 40
0.0
 40
0.0
 40
0.0
 40
0.2067168467380061
 40
0.4293637856521548
 40
0.6371506452190459
 40
0.8588306003803765
 40
0.8588306003803765
 40
0.8588306003803765
 40
0.8588306003803765
 10
37.96553457753313
 20
29.78486366481696
 30
0.0
 10
37.92557597020149
 20
29.7287272798379
 30
0.0
 10
37.84257946267495
 20
29.61212849754746
 30
0.0
 10
37.71951390782505
 20
29.43903417458191
 30
0.0
 10
37.59360816055997
 20
29.26183935306088
 30
0.0
 10
37.51073009061421
 20
29.14511423552739
 30
0.0
 10
37.46795052409078
 20
29.08486366476832
 30
0.0
 11
37.96553457753313
 21
29.78486366481696
 31
0.0
 11
37.84567381546189
 21
29.61644379531766
 31
0.0
 11
37.71665249536855
 21
29.43499088580317
 31
0.0
 11
37.59630001870596
 21
29.26560770962809
 31
0.0
 11
37.46795052409078
 21
29.08486366476832
 31
0.0
  0
SPLINE
  5
44D
330
1F
100
AcDbEntity
  8
0
  6
Continuous
 62
     7
100
AcDbSpline
210
0.0
220
0.0
230
1.0
 70
     8
 71
     3
 72
    11
 73
     7
 74
     5
 42
0.000000001
 43
0.0000000001
 44
0.00000001
 40
0.0
 40
0.0
 40
0.0
 40
0.0
 40
0.22162006050014
 40
0.4293654773714554
 40
0.6519739133066798
 40
0.8586410184122315
 40
0.8586410184122315
 40
0.8586410184122315
 40
0.8586410184122315
 10
37.8204870648446
 20
29.08486366476832
 30
0.0
 10
37.86324042340013
 20
29.14510835545229
 30
0.0
 10
37.94607055539713
 20
29.26182607689393
 30
0.0
 10
38.07189848270396
 20
29.43901899927644
 30
0.0
 10
38.19488320821669
 20
29.61211773235637
 30
0.0
 10
38.27781689419245
 20
29.72872511179203
 30
0.0
 10
38.31774385425658
 20
29.78486366476833
 30
0.0
 11
37.8204870648446
 21
29.08486366476832
 31
0.0
 11
37.94875657713146
 21
29.2655910379958
 31
0.0
 11
38.06903669528532
 21
29.43497477809227
 31
0.0
 11
38.19797613515699
 21
29.61643864941907
 31
0.0
 11
38.31774385425658
 21
29.78486366476833
 31
0.0
  0
SPLINE
  5
44E
330
1F
100
AcDbEntity
  8
0
  6
Continuous
 62
     7
100
AcDbSpline
210
0.0
220
0.0
230
1.0
 70
     8
 71
     3
 72
    11
 73
     7
 74
     5
 42
0.000000001
 43
0.0000000001
 44
0.00000001
 40
0.0
 40
0.0
 40
0.0
 40
0.0
 40
0.2216213879698014
 40
0.4293654773719832
 40
0.651975071312217
 40
0.8586410184122453
 40
0.8586410184122453
 40
0.8586410184122453
 40
0.8586410184122453
 10
41.9074384305957
 20
29.08486366476832
 30
0.0
 10
41.86468481593617
 20
29.14510871629581
 30
0.0
 10
41.78185468390411
 20
29.26182643771282
 30
0.0
 10
41.656026532963
 20
29.43901967471433
 30
0.0
 10
41.53304206359999
 20
29.61211804698328
 30
0.0
 10
41.45010837755895
 20
29.72872542637226
 30
0.0
 10
41.4101816411837
 20
29.78486366476833
 30
0.0
 11
41.9074384305957
 21
29.08486366476832
 31
0.0
 11
41.7791681498677
 21
29.26559212043468
 31
0.0
 11
41.65888880015407
 21
29.43497477809227
 31
0.0
 11
41.52994868937002
 21
29.61643959326875
 31
0.0
 11
41.4101816411837
 21
29.78486366476833
 31
0.0
  0
SPLINE
  5
44F
330
1F
100
AcDbEntity
  8
0
  6
Continuous
 62
     7
100
AcDbSpline
210
0.0
220
0.0
230
1.0
 70
     8
 71
     3
 72
    11
 73
     7
 74
     5
 42
0.000000001
 43
0.0000000001
 44
0.00000001
 40
0.0
 40
0.0
 40
0.0
 40
0.0
 40
0.2067272099810892
 40
0.4293637856432729
 40
0.6371514727864789
 40
0.8588306003711357
 40
0.8588306003711357
 40
0.8588306003711357
 40
0.8588306003711357
 10
41.05528413673653
 20
29.78486366481696
 30
0.0
 10
41.09524474694368
 20
29.72872446532735
 30
0.0
 10
41.17824125373891
 20
29.61212568251974
 30
0.0
 10
41.30130696711562
 20
29.43903113379348
 30
0.0
 10
41.42721071344337
 20
29.26183912816468
 30
0.0
 10
41.51008878335964
 20
29.14511401061044
 30
0.0
 10
41.552868190163
 20
29.08486366476832
 30
0.0
 11
41.05528413673653
 21
29.78486366481696
 31
0.0
 11
41.17515090588769
 21
29.61643535068605
 31
0.0
 11
41.30416621888585
 21
29.43499088580317
 31
0.0
 11
41.4245191747931
 21
29.26560703493771
 31
0.0
 11
41.552868190163
 21
29.08486366476832
 31
0.0
  0
SPLINE
  5
450
330
1F
100
AcDbEntity
  8
0
  6
Continuous
 62
     7
100
AcDbSpline
210
0.0
220
0.0
230
1.0
 70
     8
 71
     3
 72
    11
 73
     7
 74
     5
 42
0.000000001
 43
0.0000000001
 44
0.00000001
 40
0.0
 40
0.0
 40
0.0
 40
0.0
 40
0.2219897914609972
 40
0.4294425135994988
 40
0.6525217114869417
 40
0.8587804029413455
 40
0.8587804029413455
 40
0.8587804029413455
 40
0.8587804029413455
 10
41.82132393564916
 20
29.08486366476832
 30
0.0
 10
41.7784898821519
 20
29.14520221247628
 30
0.0
 10
41.69562676425259
 20
29.26192801114883
 30
0.0
 10
41.56965766356728
 20
29.43924463466844
 30
0.0
 10
41.44667617194941
 20
29.61225147247324
 30
0.0
 10
41.36369271301186
 20
29.72884894702419
 30
0.0
 10
41.32382653147315
 20
29.78486366476833
 30
0.0
 11
41.82132393564916
 21
29.08486366476832
 31
0.0
 11
41.69281091746859
 21
29.26587159738696
 31
0.0
 11
41.5726666227155
 21
29.43499279760231
 31
0.0
 11
41.44340967833082
 21
29.61680855836186
 31
0.0
 11
41.32382653147315
 21
29.78486366476833
 31
0.0
  0
SPLINE
  5
451
330
1F
100
AcDbEntity
  8
0
  6
Continuous
 62
     7
100
AcDbSpline
210
0.0
220
0.0
230
1.0
 70
     8
 71
     3
 72
     9
 73
     5
 74
     3
 42
0.000000001
 43
0.0000000001
 44
0.00000001
 40
0.0
 40
0.0
 40
0.0
 40
0.0
 40
0.0818495641759534
 40
0.1641224441635297
 40
0.1641224441635297
 40
0.1641224441635297
 40
0.1641224441635297
 10
38.88892680127361
 20
28.19325837402196
 30
0.0
 10
38.86370286104113
 20
28.20366419994323
 30
0.0
 10
38.81312453334472
 20
28.22452968781489
 30
0.0
 10
38.76339602724095
 20
28.24734668570036
 30
0.0
 10
38.73846764667178
 20
28.2587846193871
 30
0.0
 11
38.88892680127361
 21
28.19325837402196
 31
0.0
 11
38.81346634528025
 21
28.22496122497101
 31
0.0
 11
38.73846764667178
 21
28.2587846193871
 31
0.0
  0
SPLINE
  5
452
330
1F
100
AcDbEntity
  8
0
  6
Continuous
 62
     7
100
AcDbSpline
210
0.0
220
0.0
230
1.0
 70
     8
 71
     3
 72
     9
 73
     5
 74
     3
 42
0.000000001
 43
0.0000000001
 44
0.00000001
 40
0.0
 40
0.0
 40
0.0
 40
0.0
 40
0.2832433754466782
 40
0.5664867508933563
 40
0.5664867508933563
 40
0.5664867508933563
 40
0.5664867508933563
 10
38.17278222172257
 20
28.2587846193871
 30
0.0
 10
38.26706312570378
 20
28.25125451256865
 30
0.0
 10
38.45562493419718
 20
28.23619431887522
 30
0.0
 10
38.64418674269056
 20
28.25125451256865
 30
0.0
 10
38.73846764667178
 20
28.2587846193871
 30
0.0
 11
38.17278222172257
 21
28.2587846193871
 31
0.0
 11
38.45562493419717
 21
28.24372440572193
 31
0.0
 11
38.73846764667178
 21
28.2587846193871
 31
0.0
  0
SPLINE
  5
453
330
1F
100
AcDbEntity
  8
0
  6
Continuous
 62
     7
100
AcDbSpline
210
0.0
220
0.0
230
1.0
 70
     8
 71
     3
 72
     9
 73
     5
 74
     3
 42
0.000000001
 43
0.0000000001
 44
0.00000001
 40
0.0
 40
0.0
 40
0.0
 40
0.0
 40
0.4343023170363646
 40
0.8549809765869212
 40
0.8549809765869212
 40
0.8549809765869212
 40
0.8549809765869212
 10
41.93549630797477
 20
28.71352159747872
 30
0.0
 10
41.82020303131022
 20
28.62540986483917
 30
0.0
 10
41.59323310913608
 20
28.45195039876632
 30
0.0
 10
41.33861958415662
 20
28.32248555621902
 30
0.0
 10
41.21334138082469
 20
28.2587846193871
 30
0.0
 11
41.93549630797477
 21
28.71352159747872
 31
0.0
 11
41.5824835736985
 21
28.46053837165178
 31
0.0
 11
41.21334138082469
 21
28.2587846193871
 31
0.0
  0
SPLINE
  5
454
330
1F
100
AcDbEntity
  8
0
  6
Continuous
 62
     7
100
AcDbSpline
210
0.0
220
0.0
230
1.0
 70
     8
 71
     3
 72
     9
 73
     5
 74
     3
 42
0.000000001
 43
0.0000000001
 44
0.00000001
 40
0.0
 40
0.0
 40
0.0
 40
0.0
 40
0.4206786595505362
 40
0.854980976586903
 40
0.854980976586903
 40
0.854980976586903
 40
0.854980976586903
 10
40.64765595587548
 20
28.2587846193871
 30
0.0
 10
40.77293415920742
 20
28.32248555621901
 30
0.0
 10
41.02754768418685
 20
28.45195039876633
 30
0.0
 10
41.25451760636099
 20
28.62540986483917
 30
0.0
 10
41.36981088302554
 20
28.71352159747872
 30
0.0
 11
40.64765595587548
 21
28.2587846193871
 31
0.0
 11
41.01679814874927
 21
28.46053837165178
 31
0.0
 11
41.36981088302554
 21
28.71352159747872
 31
0.0
  0
SPLINE
  5
455
330
1F
100
AcDbEntity
  8
0
  6
Continuous
 62
     7
100
AcDbSpline
210
0.0
220
0.0
230
1.0
 70
     8
 71
     3
 72
     9
 73
     5
 74
     3
 42
0.000000001
 43
0.0000000001
 44
0.00000001
 40
0.0
 40
0.0
 40
0.0
 40
0.0
 40
0.0822728799875878
 40
0.1641224441635556
 40
0.1641224441635556
 40
0.1641224441635556
 40
0.1641224441635556
 10
40.64765595587548
 20
28.2587846193871
 30
0.0
 10
40.62272757530629
 20
28.24734668570037
 30
0.0
 10
40.57299906920252
 20
28.2245296878149
 30
0.0
 10
40.5224207415061
 20
28.20366419994323
 30
0.0
 10
40.49719680127362
 20
28.19325837402196
 30
0.0
 11
40.64765595587548
 21
28.2587846193871
 31
0.0
 11
40.572657257267
 21
28.22496122497101
 31
0.0
 11
40.49719680127362
 21
28.19325837402196
 31
0.0
  0
SPLINE
  5
456
330
1F
100
AcDbEntity
  8
0
  6
Continuous
 62
     7
100
AcDbSpline
210
0.0
220
0.0
230
1.0
 70
     8
 71
     3
 72
     9
 73
     5
 74
     3
 42
0.000000001
 43
0.0000000001
 44
0.00000001
 40
0.0
 40
0.0
 40
0.0
 40
0.0
 40
0.3051721720336911
 40
0.6093837263158933
 40
0.6093837263158933
 40
0.6093837263158933
 40
0.6093837263158933
 10
40.29410256528217
 20
28.11923042747371
 30
0.0
 10
40.19467805196022
 20
28.097315103406
 30
0.0
 10
39.99614198917861
 20
28.05355345975076
 30
0.0
 10
39.79398230497826
 20
28.03203963207325
 30
0.0
 10
39.69306180127362
 20
28.02129968504369
 30
0.0
 11
40.29410256528217
 21
28.11923042747371
 31
0.0
 11
39.99492025964349
 21
28.05906396836022
 31
0.0
 11
39.69306180127362
 21
28.02129968504369
 31
0.0
  0
SPLINE
  5
457
330
1F
100
AcDbEntity
  8
0
  6
Continuous
 62
     7
100
AcDbSpline
210
0.0
220
0.0
230
1.0
 70
     8
 71
     3
 72
     9
 73
     5
 74
     3
 42
0.000000001
 43
0.0000000001
 44
0.00000001
 40
0.0
 40
0.0
 40
0.0
 40
0.0
 40
0.1890725145901238
 40
0.3802777736713767
 40
0.3802777736713767
 40
0.3802777736713767
 40
0.3802777736713767
 10
38.52633561231582
 20
28.11923042747371
 30
0.0
 10
38.46667529545926
 20
28.13965895089745
 30
0.0
 10
38.34668169835764
 20
28.18074645089563
 30
0.0
 10
38.2309650392735
 20
28.23267481226727
 30
0.0
 10
38.17278222172257
 20
28.2587846193871
 30
0.0
 11
38.52633561231582
 21
28.11923042747371
 31
0.0
 11
38.34841193985846
 21
28.18319590776272
 31
0.0
 11
38.17278222172257
 21
28.2587846193871
 31
0.0
  0
SPLINE
  5
458
330
1F
100
AcDbEntity
  8
0
  6
Continuous
 62
     7
100
AcDbSpline
210
0.0
220
0.0
230
1.0
 70
     8
 71
     3
 72
     9
 73
     5
 74
     3
 42
0.000000001
 43
0.0000000001
 44
0.00000001
 40
0.0
 40
0.0
 40
0.0
 40
0.0
 40
0.1077730504633066
 40
0.2161989950097042
 40
0.2161989950097042
 40
0.2161989950097042
 40
0.2161989950097042
 10
39.09202103726506
 20
28.11923042747371
 30
0.0
 10
39.05794778896451
 20
28.1306354593515
 30
0.0
 10
38.9895948817414
 20
28.15351463415949
 30
0.0
 10
38.92255031450438
 20
28.179983809934
 30
0.0
 10
38.88892680127361
 20
28.19325837402196
 30
0.0
 11
39.09202103726506
 21
28.11923042747371
 31
0.0
 11
38.99012640806561
 21
28.15433762024907
 31
0.0
 11
38.88892680127361
 21
28.19325837402196
 31
0.0
  0
SPLINE
  5
459
330
1F
100
AcDbEntity
  8
0
  6
Continuous
 62
     7
100
AcDbSpline
210
0.0
220
0.0
230
1.0
 70
     8
 71
     3
 72
     9
 73
     5
 74
     3
 42
0.000000001
 43
0.0000000001
 44
0.00000001
 40
0.0
 40
0.0
 40
0.0
 40
0.0
 40
0.1859773574329895
 40
0.3762299641296906
 40
0.3762299641296906
 40
0.3762299641296906
 40
0.3762299641296906
 10
38.88892680127361
 20
28.02129968504369
 30
0.0
 10
38.82775870789852
 20
28.03215353378704
 30
0.0
 10
38.70401639304235
 20
28.0541107590556
 30
0.0
 10
38.58600952346962
 20
28.09736004533767
 30
0.0
 10
38.52633561231582
 20
28.11923042747371
 30
0.0
 11
38.88892680127361
 21
28.02129968504369
 31
0.0
 11
38.70682398251083
 21
28.05906396836022
 31
0.0
 11
38.52633561231582
 21
28.11923042747371
 31
0.0
  0
SPLINE
  5
45A
330
1F
100
AcDbEntity
  8
0
  6
Continuous
 62
     7
100
AcDbSpline
210
0.0
220
0.0
230
1.0
 70
     8
 71
     3
 72
     9
 73
     5
 74
     3
 42
0.000000001
 43
0.0000000001
 44
0.00000001
 40
0.0
 40
0.0
 40
0.0
 40
0.0
 40
0.3042115542821881
 40
0.6093837263159071
 40
0.6093837263159071
 40
0.6093837263159071
 40
0.6093837263159071
 10
39.69306180127362
 20
28.02129968504369
 30
0.0
 10
39.59214129756901
 20
28.03203963207324
 30
0.0
 10
39.38998161336864
 20
28.05355345975076
 30
0.0
 10
39.19144555058701
 20
28.09731510340601
 30
0.0
 10
39.09202103726506
 20
28.11923042747371
 30
0.0
 11
39.69306180127362
 21
28.02129968504369
 31
0.0
 11
39.39120334290376
 21
28.05906396836022
 31
0.0
 11
39.09202103726506
 21
28.11923042747371
 31
0.0
  0
SPLINE
  5
45B
330
1F
100
AcDbEntity
  8
0
  6
Continuous
 62
     7
100
AcDbSpline
210
0.0
220
0.0
230
1.0
 70
     8
 71
     3
 72
     9
 73
     5
 74
     3
 42
0.000000001
 43
0.0000000001
 44
0.00000001
 40
0.0
 40
0.0
 40
0.0
 40
0.0
 40
0.1912052590812724
 40
0.3802777736714029
 40
0.3802777736714029
 40
0.3802777736714029
 40
0.3802777736714029
 10
41.21334138082469
 20
28.2587846193871
 30
0.0
 10
41.15515856327376
 20
28.23267481226727
 30
0.0
 10
41.03944190418959
 20
28.18074645089563
 30
0.0
 10
40.91944830708798
 20
28.13965895089746
 30
0.0
 10
40.85978799023141
 20
28.11923042747371
 30
0.0
 11
41.21334138082469
 21
28.2587846193871
 31
0.0
 11
41.03771166268878
 21
28.18319590776272
 31
0.0
 11
40.85978799023141
 21
28.11923042747371
 31
0.0
  0
SPLINE
  5
45C
330
1F
100
AcDbEntity
  8
0
  6
Continuous
 62
     7
100
AcDbSpline
210
0.0
220
0.0
230
1.0
 70
     8
 71
     3
 72
     9
 73
     5
 74
     3
 42
0.000000001
 43
0.0000000001
 44
0.00000001
 40
0.0
 40
0.0
 40
0.0
 40
0.0
 40
0.1084259445463856
 40
0.2161989950097045
 40
0.2161989950097045
 40
0.2161989950097045
 40
0.2161989950097045
 10
40.49719680127362
 20
28.19325837402196
 30
0.0
 10
40.46357328804286
 20
28.179983809934
 30
0.0
 10
40.39652872080583
 20
28.15351463415949
 30
0.0
 10
40.32817581358273
 20
28.1306354593515
 30
0.0
 10
40.29410256528217
 20
28.11923042747371
 30
0.0
 11
40.49719680127362
 21
28.19325837402196
 31
0.0
 11
40.39599719448164
 21
28.15433762024907
 31
0.0
 11
40.29410256528217
 21
28.11923042747371
 31
0.0
  0
SPLINE
  5
45D
330
1F
100
AcDbEntity
  8
0
  6
Continuous
 62
     7
100
AcDbSpline
210
0.0
220
0.0
230
1.0
 70
     8
 71
     3
 72
     9
 73
     5
 74
     3
 42
0.000000001
 43
0.0000000001
 44
0.00000001
 40
0.0
 40
0.0
 40
0.0
 40
0.0
 40
0.1902526066966876
 40
0.376229964129691
 40
0.376229964129691
 40
0.376229964129691
 40
0.376229964129691
 10
40.85978799023141
 20
28.11923042747371
 30
0.0
 10
40.8001140790776
 20
28.09736004533767
 30
0.0
 10
40.68210720950489
 20
28.0541107590556
 30
0.0
 10
40.55836489464871
 20
28.03215353378703
 30
0.0
 10
40.49719680127362
 20
28.02129968504369
 30
0.0
 11
40.85978799023141
 21
28.11923042747371
 31
0.0
 11
40.67929962003642
 21
28.05906396836022
 31
0.0
 11
40.49719680127362
 21
28.02129968504369
 31
0.0
  0
ARC
  5
45E
102
{ACAD_REACTORS
330
496
102
}
330
1F
100
AcDbEntity
  8
1
  6
Continuous
 62
     7
100
AcDbCircle
 10
97.1714836777047
 20
5.03874991991631
 30
0.0
 40
0.1666666666666003
100
AcDbArc
 50
180.0
 51
299.981639368863
  0
ARC
  5
45F
102
{ACAD_REACTORS
330
496
102
}
330
1F
100
AcDbEntity
  8
1
  6
Continuous
 62
     7
100
AcDbCircle
 10
97.1714836777047
 20
7.46125008008369
 30
0.0
 40
0.1666666666667083
100
AcDbArc
 50
60.01836063113698
 51
180.0
  0
ARC
  5
460
330
1F
100
AcDbEntity
  8
1
  6
Continuous
 62
     7
100
AcDbCircle
 10
100.0047244441514
 20
6.25
 30
0.0
 40
0.0833333333333364
100
AcDbArc
 50
299.9816393688419
 51
60.01836063113769
  0
ARC
  5
461
330
1F
100
AcDbEntity
  8
1
  6
Continuous
 62
     7
100
AcDbCircle
 10
91.67157624459145
 20
6.25
 30
0.0
 40
0.0833333333333132
100
AcDbArc
 50
119.9816393688962
 51
240.0183606311243
  0
ARC
  5
462
102
{ACAD_REACTORS
330
498
102
}
330
1F
100
AcDbEntity
  8
1
  6
Continuous
 62
     7
100
AcDbCircle
 10
94.6714836777047
 20
5.13501057401635
 30
0.0
 40
0.3333333333333002
100
AcDbArc
 50
180.0000000000104
 51
240.0183606311601
  0
ARC
  5
463
102
{ACAD_REACTORS
330
499
102
}
330
1F
100
AcDbEntity
  8
1
  6
Continuous
 62
     7
100
AcDbCircle
 10
95.8381503443714
 20
6.41666666666663
 30
0.0
 40
0.0833333333333545
100
AcDbArc
 50
209.9999999999622
 51
330.0000000000231
  0
MTEXT
  5
465
330
1F
100
AcDbEntity
  8
1
 62
     7
100
AcDbMText
 10
84.8381503443714
 20
8.13031971037799
 30
0.0
 40
1.5
 41
0.0
 71
     5
 72
     1
  1
Scale
  7
CONVERTER_11
 73
     1
 44
1.32052821128451
  0
MTEXT
  5
466
330
1F
100
AcDbEntity
  8
1
 62
     7
100
AcDbMText
 10
11.00000000000006
 20
3.74999999999994
 30
0.0
 40
1.5
 41
0.0
 71
     4
 72
     1
  1
Sign.
  7
CONVERTER_11
 73
     1
 44
1.32052821128451
  0
MTEXT
  5
467
330
1F
100
AcDbEntity
  8
1
 62
     7
100
AcDbMText
 10
11.00000000000006
 20
6.24999999999994
 30
0.0
 40
1.5
 41
0.0
 71
     4
 72
     1
  1
Date
  7
CONVERTER_11
 73
     1
 44
1.32052821128451
  0
MTEXT
  5
468
330
1F
100
AcDbEntity
  8
1
 62
     7
100
AcDbMText
 10
8.0
 20
75.7499999999999
 30
0.0
 40
2.0
 41
0.0
 71
     5
 72
     1
  1
Diritti riservati      All rights reserved
  7
CONVERTER_11
 11
0.0
 21
1.0
 31
0.0
 73
     1
 44
1.32052821128451
  0
MTEXT
  5
46A
330
1F
100
AcDbEntity
  8
1
 62
     7
100
AcDbMText
 10
18.00000000000005
 20
8.74999999999997
 30
0.0
 40
1.25
 41
0.0
 71
     5
 72
     1
  1
dimensions in mm
  7
CONVERTER_12
 73
     1
 44
0.60024009603842
  0
MTEXT
  5
46C
330
1F
100
AcDbEntity
  8
1
 62
     7
100
AcDbMText
 10
42.79156485395194
 20
26.21600981241565
 30
0.0
 40
1.75
 41
0.0
 71
     2
 72
     1
  1
 
  7
CONVERTER_13
 73
     1
 44
1.32052821128451
  0
MTEXT
  5
46D
330
1F
100
AcDbEntity
  8
1
 62
     7
100
AcDbMText
 10
28.63815034437141
 20
6.25
 30
0.0
 40
2.25
 41
0.0
 71
     4
 72
     1
  1
JKSF 04\PFemale insert spring 4P +         10A 400V - JEI
  7
CONVERTER_11
 73
     1
 44
0.90036014405762
  0
MTEXT
  5
46E
330
1F
100
AcDbEntity
  8
1
 62
     7
100
AcDbMText
 10
16.30000000000005
 20
6.24999999999994
 30
0.0
 40
1.5
 41
0.0
 71
     4
 72
     1
  1
08/10/14
  7
CONVERTER_11
 73
     1
 44
1.32052821128451
  0
MTEXT
  5
46F
330
1F
100
AcDbEntity
  8
1
 62
     7
100
AcDbMText
 10
16.30000000000005
 20
3.74999999999994
 30
0.0
 40
1.5
 41
0.0
 71
     4
 72
     1
  1
M.Pezzimenti
  7
CONVERTER_11
 73
     1
 44
1.32052821128451
  0
MTEXT
  5
470
330
1F
100
AcDbEntity
  8
1
 62
     7
100
AcDbMText
 10
84.8381503443714
 20
5.03031971037803
 30
0.0
 40
2.25
 41
0.0
 71
     5
 72
     1
  1
2:1
  7
CONVERTER_11
 73
     1
 44
1.32052821128451
  0
MTEXT
  5
471
330
1F
100
AcDbEntity
  8
1
 62
     7
100
AcDbMText
 10
39.69306184665661
 20
117.4635212169436
 30
0.0
 40
1.75
 41
0.0
 71
     2
 72
     1
  1
 
  7
CONVERTER_13
 73
     1
 44
1.32052821128451
  0
MTEXT
  5
472
330
1F
100
AcDbEntity
  8
1
 62
     7
100
AcDbMText
 10
39.69306184665661
 20
57.66352197717689
 30
0.0
 40
1.75
 41
0.0
 71
     2
 72
     1
  1
 
  7
CONVERTER_13
 73
     1
 44
1.32052821128451
  0
MTEXT
  5
473
330
1F
100
AcDbEntity
  8
1
 62
     7
100
AcDbMText
 10
81.81417276365934
 20
57.66352197717689
 30
0.0
 40
1.75
 41
0.0
 71
     2
 72
     1
  1
 
  7
CONVERTER_13
 73
     1
 44
1.32052821128451
  0
MTEXT
  5
474
330
1F
100
AcDbEntity
  8
1
 62
     7
100
AcDbMText
 10
137.842920150808
 20
11.85065363002972
 30
0.0
 40
1.75
 41
0.0
 71
     2
 72
     1
  1
 
  7
CONVERTER_13
 73
     1
 44
1.32052821128451
  0
DIMENSION
  5
47F
330
1F
100
AcDbEntity
  8
1
100
AcDbDimension
  2
*D2
 10
29.19306180127358
 20
102.8572050671218
 30
0.0
 11
39.69306180127359
 21
104.6072050671218
 31
0.0
 70
    32
  1
<>
 71
     5
 42
-1.0
 53
0.00013888888889
  3
ME10_DIM_10
100
AcDbAlignedDimension
 13
50.19306180127359
 23
82.66352197533111
 33
0.0
 14
29.19306180127357
 24
82.66352197533111
 34
0.0
100
AcDbRotatedDimension
  0
DIMENSION
  5
48A
330
1F
100
AcDbEntity
  8
1
100
AcDbDimension
  2
*D3
 10
70.19306222820177
 20
103.5864552742958
 30
0.0
 11
80.69306222820177
 21
105.3364552742958
 31
0.0
 70
    32
  1
<>
 71
     5
 42
-1.0
 53
0.00013888888889
  3
ME10_DIM_11
100
AcDbAlignedDimension
 13
91.19306222820174
 23
82.66352197533111
 33
0.0
 14
70.19306222820177
 24
82.66352197533111
 34
0.0
100
AcDbRotatedDimension
  0
DIMENSION
  5
495
330
1F
100
AcDbEntity
  8
1
100
AcDbDimension
  2
*D4
 10
21.5014843823256
 20
93.9635219753311
 30
0.0
 11
19.6764843823256
 21
78.5635219753311
 31
0.0
 70
    32
  1
<>
 71
     5
 42
-1.0
 53
90.0
  3
ME10_DIM_12
100
AcDbAlignedDimension
 13
29.69306180127356
 23
63.16352197533108
 33
0.0
 14
31.94306180127359
 24
93.96352197533112
 34
0.0
 50
90.0
100
AcDbRotatedDimension
  0
HATCH
  5
496
330
1F
100
AcDbEntity
  8
1
  6
Continuous
 62
     7
100
AcDbHatch
 10
0.0
 20
0.0
 30
0.0
210
0.0
220
0.0
230
1.0
  2
SOLID
 70
     1
 71
     1
 91
        1
 92
        1
 93
       14
 72
     1
 10
97.7548632687898
 20
6.93227043112688
 11
97.3381503443714
 21
7.17268173367597
 72
     1
 10
97.3381503443714
 20
7.17268173367597
 11
97.3381503443714
 21
6.41666666666663
 72
     1
 10
97.3381503443714
 20
6.41666666666663
 11
97.8381503443714
 21
6.41666666666663
 72
     2
 10
97.8381503443714
 20
6.25
 40
0.1666666666666847
 50
270.0
 51
450.0
 73
     0
 72
     1
 10
97.8381503443714
 20
6.083333333333315
 11
97.3381503443714
 21
6.083333333333315
 72
     1
 10
97.3381503443714
 20
6.083333333333315
 11
97.3381503443714
 21
5.32731826632397
 72
     1
 10
97.3381503443714
 20
5.32731826632397
 11
97.7548632687898
 21
5.56772956887312
 72
     2
 10
97.8381503443714
 20
5.423365304531615
 40
0.1666666666666586
 50
240.0183606311635
 51
420.0183606311665
 73
     0
 72
     1
 10
97.92143741995295
 20
5.279001040190165
 11
97.25477075328635
 21
4.894385655574865
 72
     2
 10
97.1714836777047
 20
5.038749919916315
 40
0.1666666666666003
 50
60.01836063113696
 51
180.0
 73
     0
 72
     1
 10
97.0048170110381
 20
5.038749919916315
 11
97.0048170110381
 21
7.461250080083685
 72
     2
 10
97.1714836777047
 20
7.461250080083685
 40
0.1666666666667083
 50
180.0
 51
299.981639368863
 73
     0
 72
     1
 10
97.25477075328635
 20
7.605614344425135
 11
97.92143741995295
 21
7.22099895980972
 72
     2
 10
97.8381503443714
 20
7.07663469546833
 40
0.1666666666666806
 50
299.9816393688436
 51
479.9816393688459
 73
     0
 97
       14
330
61
330
45F
330
78
330
45E
330
5A
330
3B0
330
5B
330
5C
330
5D
330
3B1
330
5E
330
5F
330
60
330
3B2
 75
     0
 76
     1
 98
        1
 10
0.0
 20
0.0
  0
HATCH
  5
497
330
1F
100
AcDbEntity
  8
1
  6
Continuous
 62
     7
100
AcDbHatch
 10
0.0
 20
0.0
 30
0.0
210
0.0
220
0.0
230
1.0
  2
SOLID
 70
     1
 71
     1
 91
        1
 92
        1
 93
        5
 72
     1
 10
94.00481701103806
 20
7.07663469546833
 11
94.00481701103806
 21
5.51962595863165
 72
     1
 10
94.00481701103806
 20
5.51962595863165
 11
94.00481701103806
 21
5.423365304531615
 72
     2
 10
93.8381503443714
 20
5.423365304531615
 40
0.1666666666666998
 50
0.0
 51
180.0
 73
     0
 72
     1
 10
93.6714836777047
 20
5.423365304531615
 11
93.6714836777047
 21
7.07663469546833
 72
     2
 10
93.8381503443714
 20
7.07663469546833
 40
0.1666666666666572
 50
180.0
 51
360.0
 73
     0
 97
        5
330
64
330
63
330
3B3
330
62
330
3B4
 75
     0
 76
     1
 98
        1
 10
0.0
 20
0.0
  0
HATCH
  5
498
330
1F
100
AcDbEntity
  8
1
  6
Continuous
 62
     7
100
AcDbHatch
 10
0.0
 20
0.0
 30
0.0
210
0.0
220
0.0
230
1.0
  2
SOLID
 70
     1
 71
     1
 91
        1
 92
        1
 93
        7
 72
     1
 10
94.6714836777047
 20
7.461250080083685
 11
94.6714836777047
 21
5.13501057401635
 72
     1
 10
94.6714836777047
 20
5.13501057401635
 11
95.75477075328635
 21
4.510037261180798
 72
     2
 10
95.6714836777047
 20
4.365672996839351
 40
0.1666666666666783
 50
299.9816393688633
 51
479.9816393688463
 73
     0
 72
     1
 10
95.5881966021231
 20
4.221308732497903
 11
94.50490952654155
 21
4.846282045333453
 72
     2
 10
94.6714836777047
 20
5.13501057401635
 40
0.3333333333333002
 50
119.9816393688399
 51
179.9999999999896
 73
     0
 72
     1
 10
94.3381503443714
 20
5.13501057401629
 11
94.3381503443714
 21
7.461250080083685
 72
     2
 10
94.50481701103806
 20
7.461250080083685
 40
0.166666666666643
 50
180.0
 51
360.0
 73
     0
 97
        7
330
67
330
66
330
3B5
330
65
330
462
330
68
330
3B6
 75
     0
 76
     1
 98
        1
 10
0.0
 20
0.0
  0
HATCH
  5
499
330
1F
100
AcDbEntity
  8
1
  6
Continuous
 62
     7
100
AcDbHatch
 10
0.0
 20
0.0
 30
0.0
210
0.0
220
0.0
230
1.0
  2
SOLID
 70
     1
 71
     1
 91
        1
 92
        1
 93
       16
 72
     2
 10
95.1373001172757
 20
7.865608656017285
 40
0.1324831062376427
 50
30.00000000001921
 51
180.0
 73
     1
 72
     1
 10
95.00481701103806
 20
7.865608656017285
 11
95.00481701103806
 21
6.25
 72
     1
 10
95.00481701103806
 20
6.25
 11
95.00481701103806
 21
5.423792536316455
 72
     2
 10
95.1714836777047
 20
5.423792536316455
 40
0.166666666666643
 50
180.0
 51
360.0
 73
     1
 72
     1
 10
95.3381503443714
 20
5.423792536316455
 11
95.3381503443714
 21
6.25
 72
     1
 10
95.3381503443714
 20
6.25
 11
95.3381503443714
 21
7.11602540378442
 72
     1
 10
95.3381503443714
 20
7.11602540378442
 11
95.76598156072265
 21
6.375
 72
     2
 10
95.8381503443714
 20
6.41666666666663
 40
0.0833333333333545
 50
209.9999999999622
 51
330.0000000000231
 73
     1
 72
     1
 10
95.9103191280201
 20
6.375
 11
96.3381503443714
 21
7.11602540378442
 72
     1
 10
96.3381503443714
 20
7.11602540378442
 11
96.3381503443714
 21
6.25
 72
     1
 10
96.3381503443714
 20
6.25
 11
96.3381503443714
 21
4.654134535300898
 72
     2
 10
96.5048170110381
 20
4.654134535300898
 40
0.1666666666666998
 50
180.0
 51
360.0
 73
     1
 72
     1
 10
96.6714836777047
 20
4.654134535300898
 11
96.6714836777047
 21
7.865608656017285
 72
     2
 10
96.53900057146706
 20
7.865608656017285
 40
0.1324831062376433
 50
0.0
 51
149.9999999999716
 73
     1
 72
     1
 10
96.42426683589305
 20
7.931850209136145
 11
95.8381503443714
 21
6.91666666666663
 72
     1
 10
95.8381503443714
 20
6.91666666666663
 11
95.25203385284975
 21
7.931850209136145
 97
       16
330
69
330
3B7
330
6A
330
3B8
330
6B
330
77
330
76
330
463
330
75
330
74
330
6C
330
3B9
330
6D
330
6F
330
3BA
330
6E
 75
     0
 76
     1
 98
        1
 10
0.0
 20
0.0
  0
ENDSEC
  0
SECTION
  2
OBJECTS
  0
DICTIONARY
  5
C
330
0
100
AcDbDictionary
281
     1
  3
ACAD_GROUP
350
D
  3
ACAD_LAYOUT
350
1A
  3
ACAD_MATERIAL
350
3B
  3
ACAD_MLEADERSTYLE
350
49C
  3
ACAD_MLINESTYLE
350
17
  3
ACAD_PLOTSETTINGS
350
19
  3
ACAD_PLOTSTYLENAME
350
E
  3
ACAD_VISUALSTYLE
350
2A
  3
AcDbVariableDictionary
350
49A
  0
DICTIONARY
  5
D
102
{ACAD_REACTORS
330
C
102
}
330
C
100
AcDbDictionary
281
     1
  0
DICTIONARY
  5
1A
102
{ACAD_REACTORS
330
C
102
}
330
C
100
AcDbDictionary
281
     1
  3
Layout1
350
1E
  3
Layout2
350
26
  3
Model
350
22
  0
DICTIONARY
  5
3B
102
{ACAD_REACTORS
330
C
102
}
330
C
100
AcDbDictionary
281
     1
  3
ByBlock
350
3D
  3
ByLayer
350
3C
  3
Global
350
3E
  0
DICTIONARY
  5
49C
102
{ACAD_REACTORS
330
C
102
}
330
C
100
AcDbDictionary
281
     1
  0
DICTIONARY
  5
17
102
{ACAD_REACTORS
330
C
102
}
330
C
100
AcDbDictionary
281
     1
  3
Standard
350
18
  0
DICTIONARY
  5
19
102
{ACAD_REACTORS
330
C
102
}
330
C
100
AcDbDictionary
281
     1
  0
ACDBDICTIONARYWDFLT
  5
E
102
{ACAD_REACTORS
330
C
102
}
330
C
100
AcDbDictionary
281
     1
  3
Normal
350
F
100
AcDbDictionaryWithDefault
340
F
  0
DICTIONARY
  5
2A
102
{ACAD_REACTORS
330
C
102
}
330
C
100
AcDbDictionary
281
     1
  3
2dWireframe
350
2F
  3
3D Hidden
350
31
  3
3dWireframe
350
30
  3
Basic
350
32
  3
Brighten
350
36
  3
ColorChange
350
3A
  3
Conceptual
350
34
  3
Dim
350
35
  3
Facepattern
350
39
  3
Flat
350
2B
  3
FlatWithEdges
350
2C
  3
Gouraud
350
2D
  3
GouraudWithEdges
350
2E
  3
Linepattern
350
38
  3
Realistic
350
33
  3
Thicken
350
37
  0
DICTIONARY
  5
49A
102
{ACAD_REACTORS
330
C
102
}
330
C
100
AcDbDictionary
281
     1
  3
DIMASSOC
350
49D
  3
HIDETEXT
350
49E
  0
LAYOUT
  5
1E
102
{ACAD_REACTORS
330
1A
102
}
330
1A
100
AcDbPlotSettings
  1

  2
none_device
  4

  6

 40
0.0
 41
0.0
 42
0.0
 43
0.0
 44
0.0
 45
0.0
 46
0.0
 47
0.0
 48
0.0
 49
0.0
140
0.0
141
0.0
142
1.0
143
1.0
 70
   688
 72
     0
 73
     0
 74
     5
  7

 75
    16
147
1.0
148
0.0
149
0.0
100
AcDbLayout
  1
Layout1
 70
     1
 71
     1
 10
0.0
 20
0.0
 11
12.0
 21
9.0
 12
0.0
 22
0.0
 32
0.0
 14
1.00000000000000E+20
 24
1.00000000000000E+20
 34
1.00000000000000E+20
 15
-1.00000000000000E+20
 25
-1.00000000000000E+20
 35
-1.00000000000000E+20
146
0.0
 13
0.0
 23
0.0
 33
0.0
 16
1.0
 26
0.0
 36
0.0
 17
0.0
 27
1.0
 37
0.0
 76
     0
330
1B
  0
LAYOUT
  5
26
102
{ACAD_REACTORS
330
1A
102
}
330
1A
100
AcDbPlotSettings
  1

  2
none_device
  4

  6

 40
0.0
 41
0.0
 42
0.0
 43
0.0
 44
0.0
 45
0.0
 46
0.0
 47
0.0
 48
0.0
 49
0.0
140
0.0
141
0.0
142
1.0
143
1.0
 70
   688
 72
     0
 73
     0
 74
     5
  7

 75
    16
147
1.0
148
0.0
149
0.0
100
AcDbLayout
  1
Layout2
 70
     1
 71
     2
 10
0.0
 20
0.0
 11
0.0
 21
0.0
 12
0.0
 22
0.0
 32
0.0
 14
0.0
 24
0.0
 34
0.0
 15
0.0
 25
0.0
 35
0.0
146
0.0
 13
0.0
 23
0.0
 33
0.0
 16
1.0
 26
0.0
 36
0.0
 17
0.0
 27
1.0
 37
0.0
 76
     0
330
23
  0
LAYOUT
  5
22
102
{ACAD_REACTORS
330
1A
102
}
330
1A
100
AcDbPlotSettings
  1

  2
none_device
  4

  6

 40
0.0
 41
0.0
 42
0.0
 43
0.0
 44
0.0
 45
0.0
 46
0.0
 47
0.0
 48
0.0
 49
0.0
140
0.0
141
0.0
142
1.0
143
1.0
 70
  1712
 72
     0
 73
     0
 74
     0
  7

 75
     0
147
1.0
148
0.0
149
0.0
100
AcDbLayout
  1
Model
 70
     1
 71
     0
 10
0.0
 20
0.0
 11
12.0
 21
9.0
 12
0.0
 22
0.0
 32
0.0
 14
0.0
 24
0.0
 34
0.0
 15
138.542920150808
 25
148.5000000000001
 35
0.0
146
0.0
 13
0.0
 23
0.0
 33
0.0
 16
1.0
 26
0.0
 36
0.0
 17
0.0
 27
1.0
 37
0.0
 76
     0
330
1F
331
29
  0
MATERIAL
  5
3D
102
{ACAD_REACTORS
330
3B
102
}
102
{ACAD_XDICTIONARY
360
4C1
102
}
330
3B
100
AcDbMaterial
  1
ByBlock
  0
MATERIAL
  5
3C
102
{ACAD_REACTORS
330
3B
102
}
102
{ACAD_XDICTIONARY
360
4BF
102
}
330
3B
100
AcDbMaterial
  1
ByLayer
  0
MATERIAL
  5
3E
102
{ACAD_REACTORS
330
3B
102
}
102
{ACAD_XDICTIONARY
360
4C3
102
}
330
3B
100
AcDbMaterial
  1
Global
  0
MLINESTYLE
  5
18
102
{ACAD_REACTORS
330
17
102
}
330
17
100
AcDbMlineStyle
  2
Standard
 70
     0
  3

 62
   256
 51
90.0
 52
90.0
 71
     2
 49
0.5
 62
   256
  6
BYLAYER
 49
-0.5
 62
   256
  6
BYLAYER
  0
ACDBPLACEHOLDER
  5
F
102
{ACAD_REACTORS
330
E
102
}
330
E
  0
VISUALSTYLE
  5
2F
102
{ACAD_REACTORS
330
2A
102
}
102
{ACAD_XDICTIONARY
360
4A7
102
}
330
2A
100
AcDbVisualStyle
  2
2dWireframe
 70
     4
 71
     0
 72
     2
 73
     0
 90
        0
 40
-0.6
 41
-30.0
 62
     5
 63
     7
 74
     1
 91
        4
 64
     7
 65
   257
 75
     1
175
     1
 42
1.0
 92
        0
 66
   257
 43
1.0
 76
     1
 77
     6
 78
     2
 67
     7
 79
     5
170
     0
171
     0
290
     0
174
     0
 93
        1
 44
0.0
173
     0
291
     0
 45
0.0
1001
ACAD
1000
AcDbSavedByObjectVersion
1070
     0
  0
VISUALSTYLE
  5
31
102
{ACAD_REACTORS
330
2A
102
}
102
{ACAD_XDICTIONARY
360
4AB
102
}
330
2A
100
AcDbVisualStyle
  2
3D Hidden
 70
     6
 71
     1
 72
     2
 73
     2
 90
        0
 40
-0.6
 41
-30.0
 62
     5
 63
     7
 74
     2
 91
        2
 64
     7
 65
   257
 75
     2
175
     1
 42
40.0
 92
        0
 66
   257
 43
1.0
 76
     1
 77
     6
 78
     2
 67
     7
 79
     3
170
     0
171
     0
290
     0
174
     0
 93
        1
 44
0.0
173
     0
291
     0
 45
0.0
1001
ACAD
1000
AcDbSavedByObjectVersion
1070
     0
  0
VISUALSTYLE
  5
30
102
{ACAD_REACTORS
330
2A
102
}
102
{ACAD_XDICTIONARY
360
4A9
102
}
330
2A
100
AcDbVisualStyle
  2
3dWireframe
 70
     5
 71
     0
 72
     2
 73
     0
 90
        0
 40
-0.6
 41
-30.0
 62
     5
 63
     7
 74
     1
 91
        4
 64
     7
 65
   257
 75
     1
175
     1
 42
1.0
 92
        0
 66
   257
 43
1.0
 76
     1
 77
     6
 78
     2
 67
     7
 79
     5
170
     0
171
     0
290
     0
174
     0
 93
        1
 44
0.0
173
     0
291
     0
 45
0.0
1001
ACAD
1000
AcDbSavedByObjectVersion
1070
     0
  0
VISUALSTYLE
  5
32
102
{ACAD_REACTORS
330
2A
102
}
102
{ACAD_XDICTIONARY
360
4AD
102
}
330
2A
100
AcDbVisualStyle
  2
Basic
 70
     7
 71
     1
 72
     0
 73
     1
 90
        0
 40
-0.6
 41
-30.0
 62
     5
 63
     7
 74
     0
 91
        4
 64
     7
 65
   257
 75
     1
175
     1
 42
1.0
 92
        8
 66
     7
 43
1.0
 76
     1
 77
     6
 78
     2
 67
     7
 79
     5
170
     0
171
     0
290
     0
174
     0
 93
        1
 44
0.0
173
     0
291
     1
 45
0.0
1001
ACAD
1000
AcDbSavedByObjectVersion
1070
     0
  0
VISUALSTYLE
  5
36
102
{ACAD_REACTORS
330
2A
102
}
102
{ACAD_XDICTIONARY
360
4B5
102
}
330
2A
100
AcDbVisualStyle
  2
Brighten
 70
    12
 71
     2
 72
     2
 73
     0
 90
        0
 40
-0.6
 41
-30.0
 62
     5
 63
     7
 74
     1
 91
        4
 64
     7
 65
   257
 75
     1
175
     1
 42
1.0
 92
        8
 66
     7
 43
1.0
 76
     1
 77
     6
 78
     2
 67
     7
 79
     5
170
     0
171
     0
290
     0
174
     0
 93
        1
 44
50.0
173
     0
291
     1
 45
0.0
1001
ACAD
1000
AcDbSavedByObjectVersion
1070
     0
  0
VISUALSTYLE
  5
3A
102
{ACAD_REACTORS
330
2A
102
}
102
{ACAD_XDICTIONARY
360
4BD
102
}
330
2A
100
AcDbVisualStyle
  2
ColorChange
 70
    16
 71
     2
 72
     2
 73
     3
 90
        0
 40
-0.6
 41
-30.0
 62
     5
 63
     8
 74
     1
 91
        4
 64
     7
 65
   257
 75
     1
175
     1
 42
1.0
 92
        8
 66
     8
 43
1.0
 76
     1
 77
     6
 78
     2
 67
     7
 79
     5
170
     0
171
     0
290
     0
174
     0
 93
        1
 44
0.0
173
     0
291
     1
 45
0.0
1001
ACAD
1000
AcDbSavedByObjectVersion
1070
     0
  0
VISUALSTYLE
  5
34
102
{ACAD_REACTORS
330
2A
102
}
102
{ACAD_XDICTIONARY
360
4B1
102
}
330
2A
100
AcDbVisualStyle
  2
Conceptual
 70
     9
 71
     3
 72
     2
 73
     0
 90
        0
 40
-0.6
 41
-30.0
 62
     5
 63
     7
 74
     2
 91
        2
 64
     7
 65
   257
 75
     1
175
     1
 42
40.0
 92
        8
 66
     7
 43
1.0
 76
     1
 77
     6
 78
     2
 67
     7
 79
     3
170
     0
171
     0
290
     0
174
     0
 93
        1
 44
0.0
173
     0
291
     0
 45
0.0
1001
ACAD
1000
AcDbSavedByObjectVersion
1070
     0
  0
VISUALSTYLE
  5
35
102
{ACAD_REACTORS
330
2A
102
}
102
{ACAD_XDICTIONARY
360
4B3
102
}
330
2A
100
AcDbVisualStyle
  2
Dim
 70
    11
 71
     2
 72
     2
 73
     0
 90
        0
 40
-0.6
 41
-30.0
 62
     5
 63
     7
 74
     1
 91
        4
 64
     7
 65
   257
 75
     1
175
     1
 42
1.0
 92
        8
 66
     7
 43
1.0
 76
     1
 77
     6
 78
     2
 67
     7
 79
     5
170
     0
171
     0
290
     0
174
     0
 93
        1
 44
-50.0
173
     0
291
     1
 45
0.0
1001
ACAD
1000
AcDbSavedByObjectVersion
1070
     0
  0
VISUALSTYLE
  5
39
102
{ACAD_REACTORS
330
2A
102
}
102
{ACAD_XDICTIONARY
360
4BB
102
}
330
2A
100
AcDbVisualStyle
  2
Facepattern
 70
    15
 71
     2
 72
     2
 73
     0
 90
        0
 40
-0.6
 41
-30.0
 62
     5
 63
     7
 74
     1
 91
        4
 64
     7
 65
   257
 75
     1
175
     1
 42
1.0
 92
        8
 66
     7
 43
1.0
 76
     1
 77
     6
 78
     2
 67
     7
 79
     5
170
     0
171
     0
290
     0
174
     0
 93
        1
 44
0.0
173
     0
291
     1
 45
0.0
1001
ACAD
1000
AcDbSavedByObjectVersion
1070
     0
  0
VISUALSTYLE
  5
2B
102
{ACAD_REACTORS
330
2A
102
}
102
{ACAD_XDICTIONARY
360
49F
102
}
330
2A
100
AcDbVisualStyle
  2
Flat
 70
     0
 71
     2
 72
     1
 73
     1
 90
        2
 40
-0.6
 41
30.0
 62
     5
 63
     7
 74
     0
 91
        4
 64
     7
 65
   257
 75
     1
175
     1
 42
1.0
 92
        8
 66
     7
 43
1.0
 76
     1
 77
     6
 78
     2
 67
     7
 79
     5
170
     0
171
     0
290
     0
174
     0
 93
       13
 44
0.0
173
     0
291
     1
 45
0.0
1001
ACAD
1000
AcDbSavedByObjectVersion
1070
     0
  0
VISUALSTYLE
  5
2C
102
{ACAD_REACTORS
330
2A
102
}
102
{ACAD_XDICTIONARY
360
4A1
102
}
330
2A
100
AcDbVisualStyle
  2
FlatWithEdges
 70
     1
 71
     2
 72
     1
 73
     1
 90
        2
 40
-0.6
 41
30.0
 62
     5
 63
     7
 74
     1
 91
        4
 64
     7
 65
   257
 75
     1
175
     1
 42
1.0
 92
        0
 66
   257
 43
1.0
 76
     1
 77
     6
 78
     2
 67
     7
 79
     5
170
     0
171
     0
290
     0
174
     0
 93
       13
 44
0.0
173
     0
291
     1
 45
0.0
1001
ACAD
1000
AcDbSavedByObjectVersion
1070
     0
  0
VISUALSTYLE
  5
2D
102
{ACAD_REACTORS
330
2A
102
}
102
{ACAD_XDICTIONARY
360
4A3
102
}
330
2A
100
AcDbVisualStyle
  2
Gouraud
 70
     2
 71
     2
 72
     2
 73
     1
 90
        2
 40
-0.6
 41
30.0
 62
     5
 63
     7
 74
     0
 91
        4
 64
     7
 65
   257
 75
     1
175
     1
 42
1.0
 92
        0
 66
     7
 43
1.0
 76
     1
 77
     6
 78
     2
 67
     7
 79
     5
170
     0
171
     0
290
     0
174
     0
 93
       13
 44
0.0
173
     0
291
     1
 45
0.0
1001
ACAD
1000
AcDbSavedByObjectVersion
1070
     0
  0
VISUALSTYLE
  5
2E
102
{ACAD_REACTORS
330
2A
102
}
102
{ACAD_XDICTIONARY
360
4A5
102
}
330
2A
100
AcDbVisualStyle
  2
GouraudWithEdges
 70
     3
 71
     2
 72
     2
 73
     1
 90
        2
 40
-0.6
 41
30.0
 62
     5
 63
     7
 74
     1
 91
        4
 64
     7
 65
   257
 75
     1
175
     1
 42
1.0
 92
        0
 66
   257
 43
1.0
 76
     1
 77
     6
 78
     2
 67
     7
 79
     5
170
     0
171
     0
290
     0
174
     0
 93
       13
 44
0.0
173
     0
291
     1
 45
0.0
1001
ACAD
1000
AcDbSavedByObjectVersion
1070
     0
  0
VISUALSTYLE
  5
38
102
{ACAD_REACTORS
330
2A
102
}
102
{ACAD_XDICTIONARY
360
4B9
102
}
330
2A
100
AcDbVisualStyle
  2
Linepattern
 70
    14
 71
     2
 72
     2
 73
     0
 90
        0
 40
-0.6
 41
-30.0
 62
     5
 63
     7
 74
     1
 91
        4
 64
     7
 65
   257
 75
     7
175
     7
 42
1.0
 92
        8
 66
     7
 43
1.0
 76
     1
 77
     6
 78
     2
 67
     7
 79
     5
170
     0
171
     0
290
     0
174
     0
 93
        1
 44
0.0
173
     0
291
     1
 45
0.0
1001
ACAD
1000
AcDbSavedByObjectVersion
1070
     0
  0
VISUALSTYLE
  5
33
102
{ACAD_REACTORS
330
2A
102
}
102
{ACAD_XDICTIONARY
360
4AF
102
}
330
2A
100
AcDbVisualStyle
  2
Realistic
 70
     8
 71
     2
 72
     2
 73
     0
 90
        0
 40
-0.6
 41
-30.0
 62
     5
 63
     7
 74
     1
 91
        0
 64
     7
 65
   257
 75
     1
175
     1
 42
1.0
 92
        8
 66
     8
 43
1.0
 76
     1
 77
     6
 78
     2
 67
     7
 79
     5
170
     0
171
     0
290
     0
174
     0
 93
       13
 44
0.0
173
     0
291
     0
 45
0.0
1001
ACAD
1000
AcDbSavedByObjectVersion
1070
     0
  0
VISUALSTYLE
  5
37
102
{ACAD_REACTORS
330
2A
102
}
102
{ACAD_XDICTIONARY
360
4B7
102
}
330
2A
100
AcDbVisualStyle
  2
Thicken
 70
    13
 71
     2
 72
     2
 73
     0
 90
        0
 40
-0.6
 41
-30.0
 62
     5
 63
     7
 74
     1
 91
        4
 64
     7
 65
   257
 75
     1
175
     1
 42
1.0
 92
       12
 66
     7
 43
1.0
 76
     1
 77
     6
 78
     2
 67
     7
 79
     5
170
     0
171
     0
290
     0
174
     0
 93
        1
 44
0.0
173
     0
291
     1
 45
0.0
1001
ACAD
1000
AcDbSavedByObjectVersion
1070
     0
  0
DICTIONARYVAR
  5
49D
102
{ACAD_REACTORS
330
49A
102
}
330
49A
100
DictionaryVariables
280
     0
  1
2
  0
DICTIONARYVAR
  5
49E
102
{ACAD_REACTORS
330
49A
102
}
330
49A
100
DictionaryVariables
280
     0
  1
1
  0
DICTIONARY
  5
4C1
330
3D
100
AcDbDictionary
280
     1
281
     1
  3
ACAD_XREC_ROUNDTRIP
360
4C2
  0
DICTIONARY
  5
4BF
330
3C
100
AcDbDictionary
280
     1
281
     1
  3
ACAD_XREC_ROUNDTRIP
360
4C0
  0
DICTIONARY
  5
4C3
330
3E
100
AcDbDictionary
280
     1
281
     1
  3
ACAD_XREC_ROUNDTRIP
360
4C4
  0
DICTIONARY
  5
4A7
330
2F
100
AcDbDictionary
280
     1
281
     1
  3
ACAD_XREC_ROUNDTRIP
360
4A8
  0
DICTIONARY
  5
4AB
330
31
100
AcDbDictionary
280
     1
281
     1
  3
ACAD_XREC_ROUNDTRIP
360
4AC
  0
DICTIONARY
  5
4A9
330
30
100
AcDbDictionary
280
     1
281
     1
  3
ACAD_XREC_ROUNDTRIP
360
4AA
  0
DICTIONARY
  5
4AD
330
32
100
AcDbDictionary
280
     1
281
     1
  3
ACAD_XREC_ROUNDTRIP
360
4AE
  0
DICTIONARY
  5
4B5
330
36
100
AcDbDictionary
280
     1
281
     1
  3
ACAD_XREC_ROUNDTRIP
360
4B6
  0
DICTIONARY
  5
4BD
330
3A
100
AcDbDictionary
280
     1
281
     1
  3
ACAD_XREC_ROUNDTRIP
360
4BE
  0
DICTIONARY
  5
4B1
330
34
100
AcDbDictionary
280
     1
281
     1
  3
ACAD_XREC_ROUNDTRIP
360
4B2
  0
DICTIONARY
  5
4B3
330
35
100
AcDbDictionary
280
     1
281
     1
  3
ACAD_XREC_ROUNDTRIP
360
4B4
  0
DICTIONARY
  5
4BB
330
39
100
AcDbDictionary
280
     1
281
     1
  3
ACAD_XREC_ROUNDTRIP
360
4BC
  0
DICTIONARY
  5
49F
330
2B
100
AcDbDictionary
280
     1
281
     1
  3
ACAD_XREC_ROUNDTRIP
360
4A0
  0
DICTIONARY
  5
4A1
330
2C
100
AcDbDictionary
280
     1
281
     1
  3
ACAD_XREC_ROUNDTRIP
360
4A2
  0
DICTIONARY
  5
4A3
330
2D
100
AcDbDictionary
280
     1
281
     1
  3
ACAD_XREC_ROUNDTRIP
360
4A4
  0
DICTIONARY
  5
4A5
330
2E
100
AcDbDictionary
280
     1
281
     1
  3
ACAD_XREC_ROUNDTRIP
360
4A6
  0
DICTIONARY
  5
4B9
330
38
100
AcDbDictionary
280
     1
281
     1
  3
ACAD_XREC_ROUNDTRIP
360
4BA
  0
DICTIONARY
  5
4AF
330
33
100
AcDbDictionary
280
     1
281
     1
  3
ACAD_XREC_ROUNDTRIP
360
4B0
  0
DICTIONARY
  5
4B7
330
37
100
AcDbDictionary
280
     1
281
     1
  3
ACAD_XREC_ROUNDTRIP
360
4B8
  0
XRECORD
  5
4C2
102
{ACAD_REACTORS
330
4C1
102
}
330
4C1
100
AcDbXrecord
280
     1
102
MATERIAL
148
0.0
149
0.0
149
0.0
 93
        0
 94
      127
282
     0
 72
     1
 77
     1
171
     1
175
     1
179
     1
273
     0
  0
XRECORD
  5
4C0
102
{ACAD_REACTORS
330
4BF
102
}
330
4BF
100
AcDbXrecord
280
     1
102
MATERIAL
148
0.0
149
0.0
149
0.0
 93
        0
 94
      127
282
     0
 72
     1
 77
     1
171
     1
175
     1
179
     1
273
     0
  0
XRECORD
  5
4C4
102
{ACAD_REACTORS
330
4C3
102
}
330
4C3
100
AcDbXrecord
280
     1
102
MATERIAL
148
0.0
149
0.0
149
0.0
 93
        0
 94
      127
282
     0
 72
     1
 77
     1
171
     1
175
     1
179
     1
273
     0
  0
XRECORD
  5
4A8
102
{ACAD_REACTORS
330
4A7
102
}
330
4A7
100
AcDbXrecord
280
     1
102
RTVSPropertyOp0
 70
     1
102
RTVSPropertyOp1
 70
     1
102
RTVSPropertyOp2
 70
     1
102
RTVSPropertyOp3
 70
     1
102
RTVSPropertyOp4
 70
     1
102
RTVSPropertyOp5
 70
     1
102
RTVSPropertyOp6
 70
     1
102
RTVSPropertyOp7
 70
     1
102
RTVSPropertyOp8
 70
     1
102
RTVSPropertyOp9
 70
     1
102
RTVSPropertyOp10
 70
     1
102
RTVSPropertyOp11
 70
     1
102
RTVSPropertyOp12
 70
     1
102
RTVSPropertyOp13
 70
     1
102
RTVSPropertyOp14
 70
     1
102
RTVSPropertyOp15
 70
     1
102
RTVSPropertyOp16
 70
     1
102
RTVSPropertyOp17
 70
     1
102
RTVSPropertyOp18
 70
     1
102
RTVSPropertyOp19
 70
     1
102
RTVSPropertyOp20
 70
     1
102
RTVSPropertyOp21
 70
     1
102
RTVSPropertyOp22
 70
     1
102
RTVSPropertyOp23
 70
     1
102
RTVSPropertyOp24
 70
     1
102
RTVSPropertyOp25
 70
     1
102
RTVSPropertyOp26
 70
     1
102
RTVSPropertyOp27
 70
     1
102
RTVSPropertyOp28
 70
     1
102
RTVSPropertyOp29
 70
     1
102
RTVSPropertyOp30
 70
     1
102
RTVSPropertyOp31
 70
     1
102
RTVSPropertyOp32
 70
     1
  0
XRECORD
  5
4AC
102
{ACAD_REACTORS
330
4AB
102
}
330
4AB
100
AcDbXrecord
280
     1
102
RTVSPropertyOp0
 70
     1
102
RTVSPropertyOp1
 70
     1
102
RTVSPropertyOp2
 70
     1
102
RTVSPropertyOp3
 70
     1
102
RTVSPropertyOp4
 70
     1
102
RTVSPropertyOp5
 70
     1
102
RTVSPropertyOp6
 70
     1
102
RTVSPropertyOp7
 70
     1
102
RTVSPropertyOp8
 70
     1
102
RTVSPropertyOp9
 70
     1
102
RTVSPropertyOp10
 70
     1
102
RTVSPropertyOp11
 70
     1
102
RTVSPropertyOp12
 70
     1
102
RTVSPropertyOp13
 70
     1
102
RTVSPropertyOp14
 70
     1
102
RTVSPropertyOp15
 70
     1
102
RTVSPropertyOp16
 70
     1
102
RTVSPropertyOp17
 70
     1
102
RTVSPropertyOp18
 70
     1
102
RTVSPropertyOp19
 70
     1
102
RTVSPropertyOp20
 70
     1
102
RTVSPropertyOp21
 70
     1
102
RTVSPropertyOp22
 70
     1
102
RTVSPropertyOp23
 70
     1
102
RTVSPropertyOp24
 70
     1
102
RTVSPropertyOp25
 70
     1
102
RTVSPropertyOp26
 70
     1
102
RTVSPropertyOp27
 70
     1
102
RTVSPropertyOp28
 70
     1
102
RTVSPropertyOp29
 70
     1
102
RTVSPropertyOp30
 70
     1
102
RTVSPropertyOp31
 70
     1
102
RTVSPropertyOp32
 70
     1
  0
XRECORD
  5
4AA
102
{ACAD_REACTORS
330
4A9
102
}
330
4A9
100
AcDbXrecord
280
     1
102
RTVSPropertyOp0
 70
     1
102
RTVSPropertyOp1
 70
     1
102
RTVSPropertyOp2
 70
     1
102
RTVSPropertyOp3
 70
     1
102
RTVSPropertyOp4
 70
     1
102
RTVSPropertyOp5
 70
     1
102
RTVSPropertyOp6
 70
     1
102
RTVSPropertyOp7
 70
     1
102
RTVSPropertyOp8
 70
     1
102
RTVSPropertyOp9
 70
     1
102
RTVSPropertyOp10
 70
     1
102
RTVSPropertyOp11
 70
     1
102
RTVSPropertyOp12
 70
     1
102
RTVSPropertyOp13
 70
     1
102
RTVSPropertyOp14
 70
     1
102
RTVSPropertyOp15
 70
     1
102
RTVSPropertyOp16
 70
     1
102
RTVSPropertyOp17
 70
     1
102
RTVSPropertyOp18
 70
     1
102
RTVSPropertyOp19
 70
     1
102
RTVSPropertyOp20
 70
     1
102
RTVSPropertyOp21
 70
     1
102
RTVSPropertyOp22
 70
     1
102
RTVSPropertyOp23
 70
     1
102
RTVSPropertyOp24
 70
     1
102
RTVSPropertyOp25
 70
     1
102
RTVSPropertyOp26
 70
     1
102
RTVSPropertyOp27
 70
     1
102
RTVSPropertyOp28
 70
     1
102
RTVSPropertyOp29
 70
     1
102
RTVSPropertyOp30
 70
     1
102
RTVSPropertyOp31
 70
     1
102
RTVSPropertyOp32
 70
     1
  0
XRECORD
  5
4AE
102
{ACAD_REACTORS
330
4AD
102
}
330
4AD
100
AcDbXrecord
280
     1
102
RTVSPropertyOp0
 70
     1
102
RTVSPropertyOp1
 70
     1
102
RTVSPropertyOp2
 70
     1
102
RTVSPropertyOp3
 70
     1
102
RTVSPropertyOp4
 70
     1
102
RTVSPropertyOp5
 70
     1
102
RTVSPropertyOp6
 70
     1
102
RTVSPropertyOp7
 70
     1
102
RTVSPropertyOp8
 70
     1
102
RTVSPropertyOp9
 70
     1
102
RTVSPropertyOp10
 70
     1
102
RTVSPropertyOp11
 70
     1
102
RTVSPropertyOp12
 70
     1
102
RTVSPropertyOp13
 70
     1
102
RTVSPropertyOp14
 70
     1
102
RTVSPropertyOp15
 70
     1
102
RTVSPropertyOp16
 70
     1
102
RTVSPropertyOp17
 70
     1
102
RTVSPropertyOp18
 70
     1
102
RTVSPropertyOp19
 70
     1
102
RTVSPropertyOp20
 70
     1
102
RTVSPropertyOp21
 70
     1
102
RTVSPropertyOp22
 70
     1
102
RTVSPropertyOp23
 70
     1
102
RTVSPropertyOp24
 70
     1
102
RTVSPropertyOp25
 70
     1
102
RTVSPropertyOp26
 70
     1
102
RTVSPropertyOp27
 70
     1
102
RTVSPropertyOp28
 70
     1
102
RTVSPropertyOp29
 70
     1
102
RTVSPropertyOp30
 70
     1
102
RTVSPropertyOp31
 70
     1
102
RTVSPropertyOp32
 70
     1
  0
XRECORD
  5
4B6
102
{ACAD_REACTORS
330
4B5
102
}
330
4B5
100
AcDbXrecord
280
     1
102
RTVSPropertyOp0
 70
     1
102
RTVSPropertyOp1
 70
     1
102
RTVSPropertyOp2
 70
     1
102
RTVSPropertyOp3
 70
     1
102
RTVSPropertyOp4
 70
     1
102
RTVSPropertyOp5
 70
     1
102
RTVSPropertyOp6
 70
     1
102
RTVSPropertyOp7
 70
     1
102
RTVSPropertyOp8
 70
     1
102
RTVSPropertyOp9
 70
     1
102
RTVSPropertyOp10
 70
     1
102
RTVSPropertyOp11
 70
     1
102
RTVSPropertyOp12
 70
     1
102
RTVSPropertyOp13
 70
     1
102
RTVSPropertyOp14
 70
     1
102
RTVSPropertyOp15
 70
     1
102
RTVSPropertyOp16
 70
     1
102
RTVSPropertyOp17
 70
     1
102
RTVSPropertyOp18
 70
     1
102
RTVSPropertyOp19
 70
     1
102
RTVSPropertyOp20
 70
     1
102
RTVSPropertyOp21
 70
     1
102
RTVSPropertyOp22
 70
     1
102
RTVSPropertyOp23
 70
     1
102
RTVSPropertyOp24
 70
     1
102
RTVSPropertyOp25
 70
     1
102
RTVSPropertyOp26
 70
     1
102
RTVSPropertyOp27
 70
     1
102
RTVSPropertyOp28
 70
     1
102
RTVSPropertyOp29
 70
     1
102
RTVSPropertyOp30
 70
     1
102
RTVSPropertyOp31
 70
     1
102
RTVSPropertyOp32
 70
     1
  0
XRECORD
  5
4BE
102
{ACAD_REACTORS
330
4BD
102
}
330
4BD
100
AcDbXrecord
280
     1
102
RTVSPropertyOp0
 70
     1
102
RTVSPropertyOp1
 70
     1
102
RTVSPropertyOp2
 70
     1
102
RTVSPropertyOp3
 70
     1
102
RTVSPropertyOp4
 70
     1
102
RTVSPropertyOp5
 70
     1
102
RTVSPropertyOp6
 70
     1
102
RTVSPropertyOp7
 70
     1
102
RTVSPropertyOp8
 70
     1
102
RTVSPropertyOp9
 70
     1
102
RTVSPropertyOp10
 70
     1
102
RTVSPropertyOp11
 70
     1
102
RTVSPropertyOp12
 70
     1
102
RTVSPropertyOp13
 70
     1
102
RTVSPropertyOp14
 70
     1
102
RTVSPropertyOp15
 70
     1
102
RTVSPropertyOp16
 70
     1
102
RTVSPropertyOp17
 70
     1
102
RTVSPropertyOp18
 70
     1
102
RTVSPropertyOp19
 70
     1
102
RTVSPropertyOp20
 70
     1
102
RTVSPropertyOp21
 70
     1
102
RTVSPropertyOp22
 70
     1
102
RTVSPropertyOp23
 70
     1
102
RTVSPropertyOp24
 70
     1
102
RTVSPropertyOp25
 70
     1
102
RTVSPropertyOp26
 70
     1
102
RTVSPropertyOp27
 70
     1
102
RTVSPropertyOp28
 70
     1
102
RTVSPropertyOp29
 70
     1
102
RTVSPropertyOp30
 70
     1
102
RTVSPropertyOp31
 70
     1
102
RTVSPropertyOp32
 70
     1
  0
XRECORD
  5
4B2
102
{ACAD_REACTORS
330
4B1
102
}
330
4B1
100
AcDbXrecord
280
     1
102
RTVSPropertyOp0
 70
     1
102
RTVSPropertyOp1
 70
     1
102
RTVSPropertyOp2
 70
     1
102
RTVSPropertyOp3
 70
     1
102
RTVSPropertyOp4
 70
     1
102
RTVSPropertyOp5
 70
     1
102
RTVSPropertyOp6
 70
     1
102
RTVSPropertyOp7
 70
     1
102
RTVSPropertyOp8
 70
     1
102
RTVSPropertyOp9
 70
     1
102
RTVSPropertyOp10
 70
     1
102
RTVSPropertyOp11
 70
     1
102
RTVSPropertyOp12
 70
     1
102
RTVSPropertyOp13
 70
     1
102
RTVSPropertyOp14
 70
     1
102
RTVSPropertyOp15
 70
     1
102
RTVSPropertyOp16
 70
     1
102
RTVSPropertyOp17
 70
     1
102
RTVSPropertyOp18
 70
     1
102
RTVSPropertyOp19
 70
     1
102
RTVSPropertyOp20
 70
     1
102
RTVSPropertyOp21
 70
     1
102
RTVSPropertyOp22
 70
     1
102
RTVSPropertyOp23
 70
     1
102
RTVSPropertyOp24
 70
     1
102
RTVSPropertyOp25
 70
     1
102
RTVSPropertyOp26
 70
     1
102
RTVSPropertyOp27
 70
     1
102
RTVSPropertyOp28
 70
     1
102
RTVSPropertyOp29
 70
     1
102
RTVSPropertyOp30
 70
     1
102
RTVSPropertyOp31
 70
     1
102
RTVSPropertyOp32
 70
     1
  0
XRECORD
  5
4B4
102
{ACAD_REACTORS
330
4B3
102
}
330
4B3
100
AcDbXrecord
280
     1
102
RTVSPropertyOp0
 70
     1
102
RTVSPropertyOp1
 70
     1
102
RTVSPropertyOp2
 70
     1
102
RTVSPropertyOp3
 70
     1
102
RTVSPropertyOp4
 70
     1
102
RTVSPropertyOp5
 70
     1
102
RTVSPropertyOp6
 70
     1
102
RTVSPropertyOp7
 70
     1
102
RTVSPropertyOp8
 70
     1
102
RTVSPropertyOp9
 70
     1
102
RTVSPropertyOp10
 70
     1
102
RTVSPropertyOp11
 70
     1
102
RTVSPropertyOp12
 70
     1
102
RTVSPropertyOp13
 70
     1
102
RTVSPropertyOp14
 70
     1
102
RTVSPropertyOp15
 70
     1
102
RTVSPropertyOp16
 70
     1
102
RTVSPropertyOp17
 70
     1
102
RTVSPropertyOp18
 70
     1
102
RTVSPropertyOp19
 70
     1
102
RTVSPropertyOp20
 70
     1
102
RTVSPropertyOp21
 70
     1
102
RTVSPropertyOp22
 70
     1
102
RTVSPropertyOp23
 70
     1
102
RTVSPropertyOp24
 70
     1
102
RTVSPropertyOp25
 70
     1
102
RTVSPropertyOp26
 70
     1
102
RTVSPropertyOp27
 70
     1
102
RTVSPropertyOp28
 70
     1
102
RTVSPropertyOp29
 70
     1
102
RTVSPropertyOp30
 70
     1
102
RTVSPropertyOp31
 70
     1
102
RTVSPropertyOp32
 70
     1
  0
XRECORD
  5
4BC
102
{ACAD_REACTORS
330
4BB
102
}
330
4BB
100
AcDbXrecord
280
     1
102
RTVSPropertyOp0
 70
     1
102
RTVSPropertyOp1
 70
     1
102
RTVSPropertyOp2
 70
     1
102
RTVSPropertyOp3
 70
     1
102
RTVSPropertyOp4
 70
     1
102
RTVSPropertyOp5
 70
     1
102
RTVSPropertyOp6
 70
     1
102
RTVSPropertyOp7
 70
     1
102
RTVSPropertyOp8
 70
     1
102
RTVSPropertyOp9
 70
     1
102
RTVSPropertyOp10
 70
     1
102
RTVSPropertyOp11
 70
     1
102
RTVSPropertyOp12
 70
     1
102
RTVSPropertyOp13
 70
     1
102
RTVSPropertyOp14
 70
     1
102
RTVSPropertyOp15
 70
     1
102
RTVSPropertyOp16
 70
     1
102
RTVSPropertyOp17
 70
     1
102
RTVSPropertyOp18
 70
     1
102
RTVSPropertyOp19
 70
     1
102
RTVSPropertyOp20
 70
     1
102
RTVSPropertyOp21
 70
     1
102
RTVSPropertyOp22
 70
     1
102
RTVSPropertyOp23
 70
     1
102
RTVSPropertyOp24
 70
     1
102
RTVSPropertyOp25
 70
     1
102
RTVSPropertyOp26
 70
     1
102
RTVSPropertyOp27
 70
     1
102
RTVSPropertyOp28
 70
     1
102
RTVSPropertyOp29
 70
     1
102
RTVSPropertyOp30
 70
     1
102
RTVSPropertyOp31
 70
     1
102
RTVSPropertyOp32
 70
     1
  0
XRECORD
  5
4A0
102
{ACAD_REACTORS
330
49F
102
}
330
49F
100
AcDbXrecord
280
     1
102
RTVSPropertyOp0
 70
     1
102
RTVSPropertyOp1
 70
     1
102
RTVSPropertyOp2
 70
     1
102
RTVSPropertyOp3
 70
     1
102
RTVSPropertyOp4
 70
     1
102
RTVSPropertyOp5
 70
     1
102
RTVSPropertyOp6
 70
     1
102
RTVSPropertyOp7
 70
     1
102
RTVSPropertyOp8
 70
     1
102
RTVSPropertyOp9
 70
     1
102
RTVSPropertyOp10
 70
     1
102
RTVSPropertyOp11
 70
     1
102
RTVSPropertyOp12
 70
     1
102
RTVSPropertyOp13
 70
     1
102
RTVSPropertyOp14
 70
     1
102
RTVSPropertyOp15
 70
     1
102
RTVSPropertyOp16
 70
     1
102
RTVSPropertyOp17
 70
     1
102
RTVSPropertyOp18
 70
     1
102
RTVSPropertyOp19
 70
     1
102
RTVSPropertyOp20
 70
     1
102
RTVSPropertyOp21
 70
     1
102
RTVSPropertyOp22
 70
     1
102
RTVSPropertyOp23
 70
     1
102
RTVSPropertyOp24
 70
     1
102
RTVSPropertyOp25
 70
     1
102
RTVSPropertyOp26
 70
     1
102
RTVSPropertyOp27
 70
     1
102
RTVSPropertyOp28
 70
     1
102
RTVSPropertyOp29
 70
     1
102
RTVSPropertyOp30
 70
     1
102
RTVSPropertyOp31
 70
     1
102
RTVSPropertyOp32
 70
     1
  0
XRECORD
  5
4A2
102
{ACAD_REACTORS
330
4A1
102
}
330
4A1
100
AcDbXrecord
280
     1
102
RTVSPropertyOp0
 70
     1
102
RTVSPropertyOp1
 70
     1
102
RTVSPropertyOp2
 70
     1
102
RTVSPropertyOp3
 70
     1
102
RTVSPropertyOp4
 70
     1
102
RTVSPropertyOp5
 70
     1
102
RTVSPropertyOp6
 70
     1
102
RTVSPropertyOp7
 70
     1
102
RTVSPropertyOp8
 70
     1
102
RTVSPropertyOp9
 70
     1
102
RTVSPropertyOp10
 70
     1
102
RTVSPropertyOp11
 70
     1
102
RTVSPropertyOp12
 70
     1
102
RTVSPropertyOp13
 70
     1
102
RTVSPropertyOp14
 70
     1
102
RTVSPropertyOp15
 70
     1
102
RTVSPropertyOp16
 70
     1
102
RTVSPropertyOp17
 70
     1
102
RTVSPropertyOp18
 70
     1
102
RTVSPropertyOp19
 70
     1
102
RTVSPropertyOp20
 70
     1
102
RTVSPropertyOp21
 70
     1
102
RTVSPropertyOp22
 70
     1
102
RTVSPropertyOp23
 70
     1
102
RTVSPropertyOp24
 70
     1
102
RTVSPropertyOp25
 70
     1
102
RTVSPropertyOp26
 70
     1
102
RTVSPropertyOp27
 70
     1
102
RTVSPropertyOp28
 70
     1
102
RTVSPropertyOp29
 70
     1
102
RTVSPropertyOp30
 70
     1
102
RTVSPropertyOp31
 70
     1
102
RTVSPropertyOp32
 70
     1
  0
XRECORD
  5
4A4
102
{ACAD_REACTORS
330
4A3
102
}
330
4A3
100
AcDbXrecord
280
     1
102
RTVSPropertyOp0
 70
     1
102
RTVSPropertyOp1
 70
     1
102
RTVSPropertyOp2
 70
     1
102
RTVSPropertyOp3
 70
     1
102
RTVSPropertyOp4
 70
     1
102
RTVSPropertyOp5
 70
     1
102
RTVSPropertyOp6
 70
     1
102
RTVSPropertyOp7
 70
     1
102
RTVSPropertyOp8
 70
     1
102
RTVSPropertyOp9
 70
     1
102
RTVSPropertyOp10
 70
     1
102
RTVSPropertyOp11
 70
     1
102
RTVSPropertyOp12
 70
     1
102
RTVSPropertyOp13
 70
     1
102
RTVSPropertyOp14
 70
     1
102
RTVSPropertyOp15
 70
     1
102
RTVSPropertyOp16
 70
     1
102
RTVSPropertyOp17
 70
     1
102
RTVSPropertyOp18
 70
     1
102
RTVSPropertyOp19
 70
     1
102
RTVSPropertyOp20
 70
     1
102
RTVSPropertyOp21
 70
     1
102
RTVSPropertyOp22
 70
     1
102
RTVSPropertyOp23
 70
     1
102
RTVSPropertyOp24
 70
     1
102
RTVSPropertyOp25
 70
     1
102
RTVSPropertyOp26
 70
     1
102
RTVSPropertyOp27
 70
     1
102
RTVSPropertyOp28
 70
     1
102
RTVSPropertyOp29
 70
     1
102
RTVSPropertyOp30
 70
     1
102
RTVSPropertyOp31
 70
     1
102
RTVSPropertyOp32
 70
     1
  0
XRECORD
  5
4A6
102
{ACAD_REACTORS
330
4A5
102
}
330
4A5
100
AcDbXrecord
280
     1
102
RTVSPropertyOp0
 70
     1
102
RTVSPropertyOp1
 70
     1
102
RTVSPropertyOp2
 70
     1
102
RTVSPropertyOp3
 70
     1
102
RTVSPropertyOp4
 70
     1
102
RTVSPropertyOp5
 70
     1
102
RTVSPropertyOp6
 70
     1
102
RTVSPropertyOp7
 70
     1
102
RTVSPropertyOp8
 70
     1
102
RTVSPropertyOp9
 70
     1
102
RTVSPropertyOp10
 70
     1
102
RTVSPropertyOp11
 70
     1
102
RTVSPropertyOp12
 70
     1
102
RTVSPropertyOp13
 70
     1
102
RTVSPropertyOp14
 70
     1
102
RTVSPropertyOp15
 70
     1
102
RTVSPropertyOp16
 70
     1
102
RTVSPropertyOp17
 70
     1
102
RTVSPropertyOp18
 70
     1
102
RTVSPropertyOp19
 70
     1
102
RTVSPropertyOp20
 70
     1
102
RTVSPropertyOp21
 70
     1
102
RTVSPropertyOp22
 70
     1
102
RTVSPropertyOp23
 70
     1
102
RTVSPropertyOp24
 70
     1
102
RTVSPropertyOp25
 70
     1
102
RTVSPropertyOp26
 70
     1
102
RTVSPropertyOp27
 70
     1
102
RTVSPropertyOp28
 70
     1
102
RTVSPropertyOp29
 70
     1
102
RTVSPropertyOp30
 70
     1
102
RTVSPropertyOp31
 70
     1
102
RTVSPropertyOp32
 70
     1
  0
XRECORD
  5
4BA
102
{ACAD_REACTORS
330
4B9
102
}
330
4B9
100
AcDbXrecord
280
     1
102
RTVSPropertyOp0
 70
     1
102
RTVSPropertyOp1
 70
     1
102
RTVSPropertyOp2
 70
     1
102
RTVSPropertyOp3
 70
     1
102
RTVSPropertyOp4
 70
     1
102
RTVSPropertyOp5
 70
     1
102
RTVSPropertyOp6
 70
     1
102
RTVSPropertyOp7
 70
     1
102
RTVSPropertyOp8
 70
     1
102
RTVSPropertyOp9
 70
     1
102
RTVSPropertyOp10
 70
     1
102
RTVSPropertyOp11
 70
     1
102
RTVSPropertyOp12
 70
     1
102
RTVSPropertyOp13
 70
     1
102
RTVSPropertyOp14
 70
     1
102
RTVSPropertyOp15
 70
     1
102
RTVSPropertyOp16
 70
     1
102
RTVSPropertyOp17
 70
     1
102
RTVSPropertyOp18
 70
     1
102
RTVSPropertyOp19
 70
     1
102
RTVSPropertyOp20
 70
     1
102
RTVSPropertyOp21
 70
     1
102
RTVSPropertyOp22
 70
     1
102
RTVSPropertyOp23
 70
     1
102
RTVSPropertyOp24
 70
     1
102
RTVSPropertyOp25
 70
     1
102
RTVSPropertyOp26
 70
     1
102
RTVSPropertyOp27
 70
     1
102
RTVSPropertyOp28
 70
     1
102
RTVSPropertyOp29
 70
     1
102
RTVSPropertyOp30
 70
     1
102
RTVSPropertyOp31
 70
     1
102
RTVSPropertyOp32
 70
     1
  0
XRECORD
  5
4B0
102
{ACAD_REACTORS
330
4AF
102
}
330
4AF
100
AcDbXrecord
280
     1
102
RTVSPropertyOp0
 70
     1
102
RTVSPropertyOp1
 70
     1
102
RTVSPropertyOp2
 70
     1
102
RTVSPropertyOp3
 70
     1
102
RTVSPropertyOp4
 70
     1
102
RTVSPropertyOp5
 70
     1
102
RTVSPropertyOp6
 70
     1
102
RTVSPropertyOp7
 70
     1
102
RTVSPropertyOp8
 70
     1
102
RTVSPropertyOp9
 70
     1
102
RTVSPropertyOp10
 70
     1
102
RTVSPropertyOp11
 70
     1
102
RTVSPropertyOp12
 70
     1
102
RTVSPropertyOp13
 70
     1
102
RTVSPropertyOp14
 70
     1
102
RTVSPropertyOp15
 70
     1
102
RTVSPropertyOp16
 70
     1
102
RTVSPropertyOp17
 70
     1
102
RTVSPropertyOp18
 70
     1
102
RTVSPropertyOp19
 70
     1
102
RTVSPropertyOp20
 70
     1
102
RTVSPropertyOp21
 70
     1
102
RTVSPropertyOp22
 70
     1
102
RTVSPropertyOp23
 70
     1
102
RTVSPropertyOp24
 70
     1
102
RTVSPropertyOp25
 70
     1
102
RTVSPropertyOp26
 70
     1
102
RTVSPropertyOp27
 70
     1
102
RTVSPropertyOp28
 70
     1
102
RTVSPropertyOp29
 70
     1
102
RTVSPropertyOp30
 70
     1
102
RTVSPropertyOp31
 70
     1
102
RTVSPropertyOp32
 70
     1
  0
XRECORD
  5
4B8
102
{ACAD_REACTORS
330
4B7
102
}
330
4B7
100
AcDbXrecord
280
     1
102
RTVSPropertyOp0
 70
     1
102
RTVSPropertyOp1
 70
     1
102
RTVSPropertyOp2
 70
     1
102
RTVSPropertyOp3
 70
     1
102
RTVSPropertyOp4
 70
     1
102
RTVSPropertyOp5
 70
     1
102
RTVSPropertyOp6
 70
     1
102
RTVSPropertyOp7
 70
     1
102
RTVSPropertyOp8
 70
     1
102
RTVSPropertyOp9
 70
     1
102
RTVSPropertyOp10
 70
     1
102
RTVSPropertyOp11
 70
     1
102
RTVSPropertyOp12
 70
     1
102
RTVSPropertyOp13
 70
     1
102
RTVSPropertyOp14
 70
     1
102
RTVSPropertyOp15
 70
     1
102
RTVSPropertyOp16
 70
     1
102
RTVSPropertyOp17
 70
     1
102
RTVSPropertyOp18
 70
     1
102
RTVSPropertyOp19
 70
     1
102
RTVSPropertyOp20
 70
     1
102
RTVSPropertyOp21
 70
     1
102
RTVSPropertyOp22
 70
     1
102
RTVSPropertyOp23
 70
     1
102
RTVSPropertyOp24
 70
     1
102
RTVSPropertyOp25
 70
     1
102
RTVSPropertyOp26
 70
     1
102
RTVSPropertyOp27
 70
     1
102
RTVSPropertyOp28
 70
     1
102
RTVSPropertyOp29
 70
     1
102
RTVSPropertyOp30
 70
     1
102
RTVSPropertyOp31
 70
     1
102
RTVSPropertyOp32
 70
     1
  0
ENDSEC
  0
EOF
